The Day the Earth Stood Still Full Torrent Magnet Download

Download Torrent The Day the Earth Stood Still Movie Full in HD Result. Movie The Day the Earth Stood Still Torrent Download full. Movie The Day the Earth Stood Still torrent Magnet Download Full. The Day the Earth Stood Still Full Movie Torrent Download And Magnet Download For your PC And Mobiles. Latest Movie The Day the Earth Stood Still Download Link In Bottom.

Torrent And Magnet Links Below

______________________________________________________________________________________________________________
The Day the Earth Stood Still 2008
Bluray · 1080p x265 10bit · DD+ 5.1 VFF ENG
More Bonus
¯¯¯¯¯¯¯¯¯¯¯¯¯¯¯¯¯¯¯¯¯¯¯¯¯¯¯¯¯¯¯¯¯¯¯¯¯¯¯¯¯¯¯¯¯¯¯¯¯¯¯¯¯¯¯¯¯¯¯¯¯¯¯¯¯¯¯¯¯¯¯¯¯¯¯¯¯¯¯¯

Year : 2008

Country : United States

Original and English Title : The Day the Earth Stood Still

French Title : Le jour où la Terre s’arrêta

Director : Scott Derrickson
Music from : Tyler Bates

Acteurs : Keanu Reeves, Jennifer Connelly, Kathy Bates, Jaden Smith, John Cleese, Jon Hamm, Kyle Chandler, Robert Knepper, James Hong

John Rothman, Brandon T. Jackson

Genre : Sci-Fi, Drama, Thriller

Certificate : Scenes, comments, or images may offend viewers’ sensibilities
Budget : 80 000 000 $ · Recipe : 262 333 107 $ · ratio : 328 %

Link : Allociné 2,0 /5 · IMDB 5,5 /10 · TMDB 53 % · SensCritique 4,2 /10 · Wiki · Bande Annonce

French Plot
L’arrivée sur Terre de Klaatu , un extraterrestre d’apparence humaine, provoque de spectaculaires bouleversements. Tandis que les gouvernements et les scientifiques tentent désespérément de percer son mystère , une femme, le docteur Helen Benson , parvient à nouer un contact avec lui et à comprendre le sens de sa mission. Klaatu est là pour sauver la Terre… avec ou sans les humains.

Bonus
Re-imagining the Day 30 mn – 228,0 Mib – 1920×1080 HEVC 10Bits – VOSTFR – c7707f6e
The Day the Earth was Green 14 mn – 95,30 Mib – 1920×1080 HEVC 10Bits – VOSTFR – 912dd834
Unleashing Gort 13 mn – 77,10 Mib – 1920×1080 HEVC 10Bits – VOSTFR – 507d466f
Watching the Skies in Search of Extraterrestrial Life 23 mn – 150,0 Mib – 1920×1080 HEVC 10Bits – VOSTFR – af24b70e
4 bonus, total 550,4 Mib 1 h21 mn

Saga
Year 1951 : The Day the Earth Stood Still + Bonus
Year 2008 : The Day the Earth Stood Still + Bonus


If you enjoy and wish to support, please stay in seeding

Technical Details
¯¯¯¯¯¯¯¯¯¯¯¯¯¯¯¯¯¯¯¯¯¯¯¯¯¯¯¯¯¯¯¯¯¯¯¯¯¯¯¯¯¯¯¯¯¯¯¯¯¯¯¯¯¯¯¯¯¯¯¯¯¯¯¯¯¯¯¯¯¯¯¯¯¯¯¯¯¯¯¯¯¯¯¯¯¯¯¯¯¯¯¯¯¯¯¯¯¯¯¯
Media
Matroska 3,93 Gio 1 h43 mn 5437 Kbps, Total 4,47 Gio 3 h04 mn
Video
HEVC/H265 1920 x816 @23.976 [email protected]@Main 10 bits 4460 Kbps VerySlow
Audio
True French 5.1 EAC3 448 Kbps 48KHz 16bits

English (OV) 5.1 EAC3 448 Kbps 48KHz 16bits

Subtitles
True French forced SRT
True French full SRT
True French full PGS
True French Commentary by David Scarpa PGS
English forced PGS
English full PGS
English Commentary by David Scarpa PGS
Chapters
International, True French, English

Screenshot

Origin
Bluray : Video AVC 1080p 27136 Kbps, VFF 5.1 DTS 768 Kbps, Anglais 5.1 DTS-HDMA 4033 Kbps

NFO
¯¯¯¯¯¯¯¯¯¯¯¯¯¯¯¯¯¯¯¯¯¯¯¯¯¯¯¯¯¯¯¯¯¯¯¯¯¯¯¯¯¯¯¯¯¯¯¯¯¯¯¯¯¯¯¯¯¯¯¯¯¯¯¯¯¯¯¯¯¯¯¯¯¯¯¯¯¯¯¯¯¯¯¯¯¯¯¯¯¯¯¯¯¯¯¯¯¯¯¯

General
Format : Matroska
Format version : Version 4 / Version 2

File size : 3.93 GiB
Duration : 1 h 43 min

Overall bit rate : 5 437 kb/s

Movie name : Le jour où la Terre s’arrêta (The Day the Earth Stood Still) 2008 de Scott Derrickson avec Keanu Reeves, Jennifer Connelly, Kathy Bates, Jaden Smith, John Cleese, Jon Hamm, Kyle Chandler, Robert Knepper, James Hong, John Rothman, Brandon T. Jackson. Heurter la sensibilité (allocine=127911,imdb=tt0970416) T0M
Encoded date : UTC 2018-04-16 22:52:03

Writing application : mkvmerge v8.0.0 (‘Til The Day That I Die’) 64bit

Writing library : libebml v1.3.1 + libmatroska v1.4.2

Cover : Yes

Attachments : Cover.jpg / Cover2.jpg / Poster.jpg

Video
ID : 1

Format : HEVC
Format/Info : High Efficiency Video Coding

Format profile : Main [email protected]@Main

Codec ID : V_MPEGH/ISO/HEVC

Duration : 1 h 43 min

Bit rate : 4 460 kb/s

Width : 1 920 pixels

Height : 816 pixels

Display aspect ratio : 2.35:1

Frame rate mode : Constant

Frame rate : 23.976 (24000/1001) FPS

Color space : YUV

Chroma subsampling : 4:2:0

Bit depth : 10 bits

Bits/(Pixel*Frame) : 0.119

Stream size : 3.23 GiB (82%)

Title : Video HEVC 1920×816 @23.976 x265 [email protected]@Main 10bits veryslow 1815mn
Writing library : x265 1.9:[Windows][GCC 4.9.2][64 bit] 10bit

Encoding settings : wpp / ctu=64 / min-cu-size=8 / max-tu-size=32 / tu-intra-depth=3 / tu-inter-depth=3 / me=3 / subme=4 / merange=57 / rect / amp / max-merge=4 / temporal-mvp / no-early-skip / rdpenalty=0 / no-tskip / no-tskip-fast / strong-intra-smoothing / no-lossless / no-cu-lossless / no-constrained-intra / no-fast-intra / open-gop / no-temporal-layers / interlace=0 / keyint=240 / min-keyint=24 / scenecut=40 / rc-lookahead=40 / lookahead-slices=0 / bframes=8 / bframe-bias=0 / b-adapt=2 / ref=5 / limit-refs=1 / limit-modes / weightp / weightb / aq-mode=1 / qg-size=32 / aq-strength=1.00 / cbqpoffs=0 / crqpoffs=0 / rd=6 / psy-rd=2.00 / rdoq-level=2 / psy-rdoq=1.00 / signhide / deblock / sao / no-sao-non-deblock / b-pyramid / cutree / no-intra-refresh / rc=crf / crf=19.2 / qcomp=0.60 / qpmin=0 / qpmax=51 / qpstep=4 / ipratio=1.40 / pbratio=1.30

Default : Yes

Forced : No

Color range : Limited

Color primaries : BT.709

Transfer characteristics : BT.709

Matrix coefficients : BT.709

Audio #1
ID : 2

Format : E-AC-3
Format/Info : Enhanced Audio Coding 3

Codec ID : A_EAC3

Duration : 1 h 43 min

Bit rate mode : Constant

Bit rate : 448 kb/s

Channel(s) : 6 channels

Channel positions : Front: L C R, Side: L R, LFE

Sampling rate : 48.0 kHz

Frame rate : 187.500 FPS (256 SPF)

Compression mode : Lossy

Delay relative to video : -78 ms

Stream size : 332 MiB (8%)

Title : Français 5.1 EAC3 448kbps 48khz 16bits
Language : French
Service kind : Complete Main

Default : Yes

Forced : No

Audio #2
ID : 3

Format : E-AC-3
Format/Info : Enhanced Audio Coding 3

Codec ID : A_EAC3

Duration : 1 h 43 min

Bit rate mode : Constant

Bit rate : 448 kb/s

Channel(s) : 6 channels

Channel positions : Front: L C R, Side: L R, LFE

Sampling rate : 48.0 kHz

Frame rate : 187.500 FPS (256 SPF)

Compression mode : Lossy

Delay relative to video : -78 ms

Stream size : 332 MiB (8%)

Title : English 5.1 EAC3 448kbps 48khz 16bits
Language : English
Service kind : Complete Main

Default : No

Forced : No

Text #1
ID : 4

Format : UTF-8
Codec ID : S_TEXT/UTF8

Codec ID/Info : UTF-8 Plain Text

Duration : 1 h 42 min

Bit rate : 2 b/s

Count of elements : 44

Stream size : 1.71 KiB (0%)

Title : Français forcé (Passages)
Language : French
Default : Yes

Forced : Yes

Text #2
ID : 5

Format : UTF-8
Codec ID : S_TEXT/UTF8

Codec ID/Info : UTF-8 Plain Text

Duration : 1 h 42 min

Bit rate : 48 b/s

Count of elements : 967

Stream size : 36.4 KiB (0%)

Title : Français complet (Tous le film)
Language : French
Default : No

Forced : No

Text #3
ID : 6

Format : PGS
Muxing mode : zlib

Codec ID : S_HDMV/PGS

Codec ID/Info : Picture based subtitle format used on BDs/HD-DVDs

Duration : 1 h 37 min

Bit rate : 10.5 kb/s

Count of elements : 2126

Stream size : 7.33 MiB (0%)

Title : Français complet (Tous le film) PGS
Language : French
Default : No

Forced : No

Text #4
ID : 7

Format : PGS
Muxing mode : zlib

Codec ID : S_HDMV/PGS

Codec ID/Info : Picture based subtitle format used on BDs/HD-DVDs

Duration : 1 h 38 min

Bit rate : 20.3 kb/s

Count of elements : 3452

Stream size : 14.3 MiB (0%)

Title : Français commentaire de David Scarpa
Language : French
Default : No

Forced : No

Text #5
ID : 8

Format : PGS
Muxing mode : zlib

Codec ID : S_HDMV/PGS

Codec ID/Info : Picture based subtitle format used on BDs/HD-DVDs

Duration : 1 min 32 s

Bit rate : 12.5 kb/s

Count of elements : 45

Stream size : 141 KiB (0%)

Title : English forced PGS
Language : English
Default : No

Forced : No

Text #6
ID : 9

Format : PGS
Muxing mode : zlib

Codec ID : S_HDMV/PGS

Codec ID/Info : Picture based subtitle format used on BDs/HD-DVDs

Duration : 1 h 36 min

Bit rate : 26.1 kb/s

Count of elements : 2383

Stream size : 18.1 MiB (0%)

Title : English full PGS
Language : English
Default : No

Forced : No

Text #7
ID : 10

Format : PGS
Muxing mode : zlib

Codec ID : S_HDMV/PGS

Codec ID/Info : Picture based subtitle format used on BDs/HD-DVDs

Duration : 1 h 38 min

Bit rate : 24.6 kb/s

Count of elements : 3569

Stream size : 17.3 MiB (0%)

Title : English comment by David Scarpa
Language : English
Default : No

Forced : No

Menu
00:00:00.000 : :01 – 00:00:00 – fr:1928 – en:1928 (Main Titles)

00:05:25.992 : :02 – 00:05:25 – fr:En détention fédérale – en:In Federal Custody

00:11:53.421 : :03 – 00:11:53 – fr:Lieu de l’impact – en:Impact Location

00:15:46.946 : :04 – 00:15:46 – fr:L’Objet – en:The Object Lands

00:21:24.908 : :05 – 00:21:24 – fr:Abattu – en:Shot Down

00:24:10.031 : :06 – 00:24:10 – fr:Rien à craindre – en:Nothing to Fear

00:28:40.301 : :07 – 00:28:40 – fr:Propriété du gouvernement – en:Property of the U.S. Government

00:31:35.560 : :08 – 00:31:35 – fr:Prendre le temps de s’adapter – en:Taking Time to Adapt

00:34:20.641 : :09 – 00:34:20 – fr:Fuir ! – en:Run !

00:37:50.643 : :10 – 00:37:50 – fr:Vous devriez me laisser partir – en:You Should Let Me Go

00:41:40.748 : :11 – 00:41:40 – fr:Observer le comportement humain – en:Observing Human Behavior

00:44:27.373 : :12 – 00:44:27 – fr:Un énorme risque – en:A Huge Risk

00:47:33.308 : :13 – 00:47:33 – fr:D’autres idées ? – en:Any Other Ideas ?

00:49:05.692 : :14 – 00:49:05 – fr:Sauver la terre – en:To Save the Earth

00:51:20.368 : :15 – 00:51:20 – fr:Une course déraisonnable – en:An Unreasonable Race

00:54:38.483 : :16 – 00:54:38 – fr:Dans le monde entier – en:All Over the World

00:59:25.520 : :17 – 00:59:25 – fr:Les sphères repartent – en:The Spheres Ascend

01:01:04.744 : :18 – 01:01:04 – fr:Des arches – en:It’s an Ark

01:06:44.000 : :19 – 01:06:44 – fr:Pas si différent – en:Not So Different

01:10:50.329 : :20 – 01:10:50 – fr:Au bord de la destruction – en:On the Brink of Destruction

01:13:06.131 : :21 – 01:13:06 – fr:Illusion de contrôle – en:In Control

01:17:41.365 : :22 – 01:17:41 – fr:Rongé vivant ! – en:Eaten Alive !

01:21:53.742 : :23 – 01:21:53 – fr:Laisse-moi essayer – en:Let Me Try

01:24:12.422 : :24 – 01:24:12 – fr:Tout est transformé – en:Everything Is Transformed

01:27:24.530 : :25 – 01:27:24 – fr:Donnez-nous juste une chance – en:Just Give Us a Chance

01:29:39.082 : :26 – 01:29:39 – fr:Au bord du précipice – en:At the Precipice

01:34:45.680 : :27 – 01:34:45 – fr:La Terre reste immobile – en:The Earth Stands Still

01:38:32.907 : :28 – 01:38:32 – fr:Générique – en:End Titles

The Day the Earth Stood StillDownload Torrent Magnet

#Day #Earth #Stood