The Boy Next Door 2015.720p.B Full Torrent Magnet Download

Download Torrent The Boy Next Door 2015.720p.B Movie Full in HD Result. Movie The Boy Next Door 2015.720p.B Torrent Download full. Movie The Boy Next Door 2015.720p.B torrent Magnet Download Full. The Boy Next Door 2015.720p.B Full Movie Torrent Download And Magnet Download For your PC And Mobiles. Latest Movie The Boy Next Door 2015.720p.B Download Link In Bottom.

Torrent And Magnet Links Below

Quote:

*****************************************************************

*******************SCREENSHOTS(Click to enlarge)*******************

*******************************MEDIAINFO****************************

18+.The Boy Next Door 2015.720p.BluRay.x264.With.Sample.LLG.mp4

Format : MPEG-4

Format profile : Base Media

Codec ID : isom (isom/iso2/avc1/mp41)

File size : 656 MiB

Duration : 1 h 30 min

Overall bit rate mode : Variable

Overall bit rate : 1 012 kb/s

Writing application : Lavf57.83.100

Video

ID : 1

Format : AVC

Format/Info : Advanced Video Codec

Format profile : [email protected]
Format settings : CABAC / 1 Ref Frames

Format settings, CABAC : Yes

Format settings, Reference frames : 1 frame

Codec ID : avc1

Codec ID/Info : Advanced Video Coding

Duration : 1 h 30 min

Bit rate mode : Variable

Bit rate : 878 kb/s

Maximum bit rate : 2 700 kb/s

Width : 1 280 pixels

Height : 536 pixels

Display aspect ratio : 2.40:1

Frame rate mode : Constant

Frame rate : 23.976 (23976/1000) FPS

Color space : YUV

Chroma subsampling : 4:2:0

Bit depth : 8 bits

Scan type : Progressive

Bits/(Pixel*Frame) : 0.053

Stream size : 570 MiB (87%)

Title : MoviesMB.com

Language : English

Codec configuration box : avcC

Audio

ID : 2

Format : AAC LC

Codec ID : mp4a-40-2

Duration : 1 h 30 min

Bit rate mode : Constant

Bit rate : 128 kb/s

Channel(s) : 2 channels

Channel layout : L R

Sampling rate : 48.0 kHz

Frame rate : 46.875 FPS (1024 SPF)

Compression mode : Lossy

Stream size : 83.2 MiB (13%)

Title : MoviesMB.com

Language : English

Default : Yes

Alternate group : 1

********************************************************

The Boy Next Door 2015.720p.BDownload Torrent Magnet

#Boy #Door #2015720pB