The.Bourne.Ultimatum.IL.Ritor Full Torrent Magnet Download

Download Torrent The.Bourne.Ultimatum.IL.Ritor Movie Full in HD Result. Movie The.Bourne.Ultimatum.IL.Ritor Torrent Download full. Movie The.Bourne.Ultimatum.IL.Ritor torrent Magnet Download Full. The.Bourne.Ultimatum.IL.Ritor Full Movie Torrent Download And Magnet Download For your PC And Mobiles. Latest Movie The.Bourne.Ultimatum.IL.Ritor Download Link In Bottom.

Torrent And Magnet Links Below

DATI – TRAMA

Titolo originale: The Bourne Ultimatum

Nazione: United States, Germany, France, Spain

Anno: 2007

Genere: Action, Mystery, Thriller

Durata: 115

Regia: Paul Greengrass

Cast: Matt Damon, Julia Stiles, David Strathairn, Scott Glenn, Paddy Considine, Edgar Ramírez, Albert Finney, Joan Allen, Tom Gallop, Corey Johnson, Daniel Brühl, Joey Ansah, Colin Stinton, Dan Fredenburgh, Lucy Liemann, Bryan Reents, Arkie Reece, John Roberson, Russ Huards, Mark Bazeley

Produzione: Universal Pictures, Motion Picture BETA Produktionsgesellschaft, Kennedy/Marshall Company, The, Ludlum Entertainment, Bourne Again, KanZaman Services, Peninsula Films, Studio Babelsberg

The Bourne Ultimatum è il terzo capitolo sulle avventure dell’agente segreto Jason Bourne con la memoria azzerata ed in fuga dai servizi segreti. Il nuovo film svela le origini ed il passato del personaggio, destinato a confrontarsi di nuovo con i suoi ex-colleghi e battersi con un nuovo nemico.“The Bourne Ultimatum” si svolge tra Europa ed America e chiude la trilogia con un’altra evoluzione del protagonista, il quale nel secondo episodio ha perso la compagna e la possibilità di una vita normale, ma è riuscito anche a fare i conti con il proprio passato trovando un riscatto morale e forse una speranza per il proprio futuro, anche se è rimasto solo e quindi anche più pericoloso di prima.

IMMAGINI



REPORT

General

Unique ID : 223765232287057731556381861275015843004 (0xA8579DBB2EEEF0B0BEAC444DA3DC0CBC)

Complete name : D:FILM 4KFILMThe.Bourne.Ultimatum.IL.Ritorno.dello.Sciacallo.2007.UHD.BluRay.2160p.DTS.iTA.AC3.ENG.Subs.x265-DVS.mkv

Format : Matroska

Format version : Version 2

File size : 11.3 GiB

Duration : 1 h 55 min

Overall bit rate : 14.1 Mb/s

Encoded date : UTC 2018-02-14 12:20:58

Writing application : mkvmerge v18.0.0 (‘Apricity’) 64-bit

Writing library : libebml v1.3.5 + libmatroska v1.4.8

Video

ID : 1

Format : HEVC

Format/Info : High Efficiency Video Coding

Format profile : Main [email protected]@High

Codec ID : V_MPEGH/ISO/HEVC

Duration : 1 h 55 min

Bit rate : 12.7 Mb/s

Width : 3 840 pixels

Height : 1 600 pixels

Display aspect ratio : 2.40:1

Frame rate mode : Constant

Frame rate : 23.976 (24000/1001) FPS

Color space : YUV

Chroma subsampling : 4:2:0 (Type 2)

Bit depth : 10 bits

Bits/(Pixel*Frame) : 0.086

Stream size : 10.2 GiB (90%)

Title : HEVC_2160p

Writing library : x265 2.6+37-1949157705ce:[Windows][MSVC 1912][64 bit] 10bit

Encoding settings : cpuid=1173503 / frame-threads=2 / numa-pools=4 / wpp / no-pmode / no-pme / no-psnr / no-ssim / log-level=2 / input-csp=1 / input-res=3840×1600 / interlace=0 / total-frames=0 / level-idc=51 / high-tier=1 / uhd-bd=0 / ref=4 / no-allow-non-conformance / repeat-headers / annexb / no-aud / hrd / info / hash=0 / no-temporal-layers / open-gop / min-keyint=23 / keyint=250 / gop-lookahead=0 / bframes=8 / b-adapt=2 / b-pyramid / bframe-bias=0 / rc-lookahead=40 / lookahead-slices=4 / scenecut=40 / radl=0 / no-intra-refresh / ctu=64 / min-cu-size=8 / rect / no-amp / max-tu-size=32 / tu-inter-depth=1 / tu-intra-depth=1 / limit-tu=0 / rdoq-level=2 / dynamic-rd=0.00 / no-ssim-rd / signhide / no-tskip / nr-intra=0 / nr-inter=0 / no-constrained-intra / no-strong-intra-smoothing / max-merge=3 / limit-refs=3 / limit-modes / me=3 / subme=3 / merange=57 / temporal-mvp / weightp / no-weightb / no-analyze-src-pics / deblock=-3:-3 / no-sao / no-sao-non-deblock / rd=4 / no-early-skip / rskip / no-fast-intra / no-tskip-fast / no-cu-lossless / no-b-intra / no-splitrd-skip / rdpenalty=0 / psy-rd=2.00 / psy-rdoq=1.00 / no-rd-refine / no-lossless / cbqpoffs=0 / crqpoffs=0 / rc=crf / crf=18.5 / qcomp=0.60 / qpstep=4 / stats-write=0 / stats-read=0 / vbv-maxrate=160000 / vbv-bufsize=160000 / vbv-init=0.9 / crf-max=0.0 / crf-min=0.0 / ipratio=1.40 / pbratio=1.30 / aq-mode=3 / aq-strength=0.80 / cutree / zone-count=1 / zones: / start-frame=160994 / end-frame=170400 / qp=28 / no-strict-cbr / qg-size=32 / no-rc-grain / qpmax=69 / qpmin=0 / no-const-vbv / sar=1 / overscan=0 / videoformat=5 / range=0 / colorprim=9 / transfer=16 / colormatrix=9 / chromaloc=1 / chromaloc-top=2 / chromaloc-bottom=2 / display-window=0 / master-display=G(13250,34500)B(7500,3000)R(34000,16000)WP(15600,16450)L(10000000,50) / max-cll=951,142 / min-luma=0 / max-luma=1023 / log2-max-poc-lsb=8 / vui-timing-info / vui-hrd-info / slices=1 / no-opt-qp-pps / no-opt-ref-list-length-pps / no-multi-pass-opt-rps / scenecut-bias=0.05 / no-opt-cu-delta-qp / no-aq-motion / hdr / hdr-opt / no-dhdr10-opt / analysis-reuse-level=5 / scale-factor=0 / refine-intra=0 / refine-inter=0 / refine-mv=0 / no-limit-sao / ctu-info=0 / no-lowpass-dct / refine-mv-type=0 / copy-pic=1

Language : Italian

Default : Yes

Forced : No

Color range : Limited

Color primaries : BT.2020

Transfer characteristics : PQ

Matrix coefficients : BT.2020 non-constant

Mastering display color pri : R: x=0.680000 y=0.320000, G: x=0.265000 y=0.690000, B: x=0.150000 y=0.060000, White point: x=0.312000 y=0.329000

Mastering display luminance : min: 0.0050 cd/m2, max: 1000.0000 cd/m2

Maximum Content Light Level : 951 cd/m2

Maximum Frame-Average Light : 142 cd/m2

Audio #1

ID : 2

Format : DTS

Format/Info : Digital Theater Systems

Codec ID : A_DTS

Duration : 1 h 55 min

Bit rate mode : Constant

Bit rate : 768 kb/s

Channel(s) : 6 channels

Channel positions : Front: L C R, Side: L R, LFE

Sampling rate : 48.0 kHz

Frame rate : 93.750 FPS (512 SPF)

Bit depth : 24 bits

Compression mode : Lossy

Stream size : 633 MiB (5%)

Title : iTALiAN DTS 5.1

Language : Italian

Default : Yes

Forced : Yes

Audio #2

ID : 3

Format : AC-3

Format/Info : Audio Coding 3

Codec ID : A_AC3

Duration : 1 h 55 min

Bit rate mode : Constant

Bit rate : 640 kb/s

Channel(s) : 6 channels

Channel positions : Front: L C R, Side: L R, LFE

Sampling rate : 48.0 kHz

Frame rate : 31.250 FPS (1536 SPF)

Bit depth : 16 bits

Compression mode : Lossy

Stream size : 528 MiB (5%)

Title : ENGLiSH AC3 5.1

Language : English

Service kind : Complete Main

Default : No

Forced : No

Text #1

ID : 4

Format : VobSub

Codec ID : S_VOBSUB

Codec ID/Info : Picture based subtitle format used on DVDs

Duration : 1 h 54 min

Bit rate : 464 b/s

Count of elements : 58

Stream size : 390 KiB (0%)

Title : FORCED

Language : Italian

Default : Yes

Forced : Yes

Text #2

ID : 5

Format : VobSub

Codec ID : S_VOBSUB

Codec ID/Info : Picture based subtitle format used on DVDs

Duration : 1 h 54 min

Bit rate : 6 515 b/s

Count of elements : 908

Stream size : 5.35 MiB (0%)

Title : iTALiAN

Language : Italian

Default : No

Forced : No

Text #3

ID : 6

Format : VobSub

Codec ID : S_VOBSUB

Codec ID/Info : Picture based subtitle format used on DVDs

Duration : 1 h 15 min

Bit rate : 251 b/s

Count of elements : 28

Stream size : 138 KiB (0%)

Title : FORCED

Language : English

Default : No

Forced : No

Text #4

ID : 7

Format : VobSub

Codec ID : S_VOBSUB

Codec ID/Info : Picture based subtitle format used on DVDs

Duration : 1 h 45 min

Bit rate : 8 098 b/s

Count of elements : 1017

Stream size : 6.10 MiB (0%)

Title : ENGLiSH

Language : English

Default : No

Forced : No

Menu

00:00:00.000 : en:00:00:00.000

00:04:02.242 : en:00:04:02.242

00:09:46.127 : en:00:09:46.127

00:13:57.211 : en:00:13:57.211

00:21:01.844 : en:00:21:01.844

00:27:52.045 : en:00:27:52.045

00:31:46.863 : en:00:31:46.863

00:38:44.447 : en:00:38:44.447

00:43:51.754 : en:00:43:51.754

00:50:02.917 : en:00:50:02.917

00:58:12.781 : en:00:58:12.781

01:05:35.765 : en:01:05:35.765

01:10:35.898 : en:01:10:35.898

01:15:49.587 : en:01:15:49.587

01:20:36.957 : en:01:20:36.957

01:25:08.270 : en:01:25:08.270

01:31:34.781 : en:01:31:34.781

01:35:58.294 : en:01:35:58.294

01:42:11.834 : en:01:42:11.834

01:46:07.361 : en:01:46:07.361

GOOD DOWNLOAD

The.Bourne.Ultimatum.IL.RitorDownload Torrent Magnet

#TheBourneUltimatumILRitor