The.Bone.Collector.1999.BRRip Full Torrent Magnet Download

Download Torrent The.Bone.Collector.1999.BRRip Movie Full in HD Result. Movie The.Bone.Collector.1999.BRRip Torrent Download full. Movie The.Bone.Collector.1999.BRRip torrent Magnet Download Full. The.Bone.Collector.1999.BRRip Full Movie Torrent Download And Magnet Download For your PC And Mobiles. Latest Movie The.Bone.Collector.1999.BRRip Download Link In Bottom.

Torrent And Magnet Links Below

The.Bone.Collector.1999.BRRip.XviD.B4ND1T69

Director: Phillip Noyce

Writers: Jeffery Deaver (book), Jeremy Iacone (screenplay)

Stars: Denzel Washington, Angelina Jolie, Queen Latifah

Plot/Story:

A quadriplegic ex-homicide detective and his partner try to track down a serial killer who is terrorizing New York City.

General

Complete name : The.Bone.Collector.1999.BRRip.XviD.B4ND1T69.avi

Format : AVI

Format/Info : Audio Video Interleave

File size : 881 MiB

Duration : 1 h 57 min

Overall bit rate : 1 044 kb/s

Subtitles : Yes…Included(HI)

Video

ID : 0

Format : MPEG-4 Visual

Format profile : Advanced [email protected]
Format settings, BVOP : 2

Format settings, QPel : No

Format settings, GMC : No warppoints

Format settings, Matrix : Default (H.263)

Codec ID : XVID

Codec ID/Hint : XviD

Duration : 1 h 57 min

Bit rate : 903 kb/s

Width : 720 pixels

Height : 304 pixels

Display aspect ratio : 2.35:1

Frame rate : 24.390 FPS

Color space : YUV

Chroma subsampling : 4:2:0

Bit depth : 8 bits

Scan type : Progressive

Compression mode : Lossy

Bits/(Pixel*Frame) : 0.169

Stream size : 762 MiB (86%)

Writing library : XviD 64

Audio

ID : 1

Format : MPEG Audio

Format version : Version 1

Format profile : Layer 3

Codec ID : 55

Codec ID/Hint : MP3

Duration : 1 h 57 min

Bit rate mode : Constant

Bit rate : 128 kb/s

Channel(s) : 2 channels

Sampling rate : 48.0 kHz

Compression mode : Lossy

Stream size : 108 MiB (12%)

Alignment : Aligned on interleaves

Interleave, duration : 24 ms (0.59 video frame)

Screenshots:









Please Seed For As Long As Possible

Or At Least 1:1 Ratio…Thanks

Enjoy Peeps

The.Bone.Collector.1999.BRRipDownload Torrent Magnet

#TheBoneCollector1999BRRip