The Big Bull 2021 720p WEB-DL Full Torrent Magnet Download

Download Torrent The Big Bull 2021 720p WEB-DL Movie Full in HD Result. Movie The Big Bull 2021 720p WEB-DL Torrent Download full. Movie The Big Bull 2021 720p WEB-DL torrent Magnet Download Full. The Big Bull 2021 720p WEB-DL Full Movie Torrent Download And Magnet Download For your PC And Mobiles. Latest Movie The Big Bull 2021 720p WEB-DL Download Link In Bottom.

Torrent And Magnet Links Below

The Big Bull 2021 720p WEB-DL DDP5.1 ESub – SunGeorge

Quote:

The Big Bull 2021 720p WEB-DL DDP5.1 ESub – SunGeorge





Code:

General

Complete name : The.Big.Bull.2021.Hindi.720p.WEB-DL.DDP.5.1.ESub.mkv

Format : Matroska

Format version : Version 4

File size : 1.19 GiB

Duration : 2 h 33 min

Overall bit rate : 1 113 kb/s

Movie name : MovieAIO.us

Encoded date : UTC 2021-04-08 14:38:18

Writing application : mkvmerge v55.0.0 (‘Waiting For Space’) 64-bit

Writing library : libebml v1.4.2 + libmatroska v1.6.4

Video

ID : 1

Format : AVC

Format/Info : Advanced Video Codec

Format profile : [email protected]
Format settings : CABAC / 4 Ref Frames

Format settings, CABAC : Yes

Format settings, Reference frames : 4 frames

Codec ID : V_MPEG4/ISO/AVC

Duration : 2 h 33 min

Bit rate : 907 kb/s

Width : 1 274 pixels

Height : 720 pixels

Display aspect ratio : 16:9

Frame rate mode : Variable

Frame rate : 24.000 FPS

Color space : YUV

Chroma subsampling : 4:2:0

Bit depth : 8 bits

Scan type : Progressive

Bits/(Pixel*Frame) : 0.041

Stream size : 1 010 MiB (83%)

Title : MovieAIO.us

Writing library : x264 core 155 r2917 0a84d98

Encoding settings : cabac=1 / ref=1 / deblock=1:0:0 / analyse=0x3:0x3 / me=dia / subme=1 / psy=1 / psy_rd=1.00:0.00 / mixed_ref=0 / me_range=16 / chroma_me=1 / trellis=0 / 8x8dct=1 / cqm=0 / deadzone=21,11 / fast_pskip=1 / chroma_qp_offset=0 / threads=22 / lookahead_threads=3 / sliced_threads=0 / nr=0 / decimate=1 / interlaced=0 / bluray_compat=0 / constrained_intra=0 / bframes=3 / b_pyramid=2 / b_adapt=1 / b_bias=0 / direct=1 / weightb=1 / open_gop=0 / weightp=1 / keyint=250 / keyint_min=25 / scenecut=40 / intra_refresh=0 / rc=abr / mbtree=0 / bitrate=907 / ratetol=1.0 / qcomp=0.60 / qpmin=0 / qpmax=69 / qpstep=4 / ip_ratio=1.40 / pb_ratio=1.30 / aq=1:1.00

Default : Yes

Forced : No

Audio

ID : 2

Format : E-AC-3

Format/Info : Enhanced AC-3

Commercial name : Dolby Digital Plus

Codec ID : A_EAC3

Duration : 2 h 33 min

Bit rate mode : Constant

Bit rate : 192 kb/s

Channel(s) : 6 channels

Channel layout : L R C LFE Ls Rs

Sampling rate : 48.0 kHz

Frame rate : 31.250 FPS (1536 SPF)

Compression mode : Lossy

Stream size : 211 MiB (17%)

Title : MovieAIO.us

Language : Hindi

Service kind : Complete Main

Default : Yes

Forced : No

Text

ID : 3

Format : UTF-8

Codec ID : S_TEXT/UTF8

Codec ID/Info : UTF-8 Plain Text

Duration : 2 h 33 min

Bit rate : 63 b/s

Count of elements : 2099

Stream size : 71.0 KiB (0%)

Title : MovieAIO.us

Language : English

Default : Yes

Forced : No

The Big Bull 2021 720p WEB-DLDownload Torrent Magnet

#Big #Bull #720p #WEBDL