The Amazing Spider-Man 2012 x Full Torrent Magnet Download

Download Torrent The Amazing Spider-Man 2012 x Movie Full in HD Result. Movie The Amazing Spider-Man 2012 x Torrent Download full. Movie The Amazing Spider-Man 2012 x torrent Magnet Download Full. The Amazing Spider-Man 2012 x Full Movie Torrent Download And Magnet Download For your PC And Mobiles. Latest Movie The Amazing Spider-Man 2012 x Download Link In Bottom.

Torrent And Magnet Links Below

Greets

Admin , Moderator , Noir, Ex0duS5150, theeshiznit, MisterQ, UserHEVC, miok, Silmarillion, Mr. Blue, MaDHeX and many more ;

Join Us On TeleGram

https://t.me/gopisahit

The Amazing Spider-Man 2012 x264 720p Esub BluRay Dual Audio English Hindi THE GOPI SAHI

Format : Matroska

Format version : Version 4

File size : 1.06 GiB

Duration : 2 h 16 min

Overall bit rate : 1 116 kb/s

Movie name : The Amazing Spider-Man 2012 GOPI SAHI

Encoded date : UTC 2020-06-24 23:37:25

Video

ID : 1

Format : AVC

Format/Info : Advanced Video Codec

Format profile : [email protected]
Format settings : CABAC / 5 Ref Frames

Format settings, CABAC : Yes

Format settings, Reference fra : 5 frames

Codec ID : V_MPEG4/ISO/AVC

Duration : 2 h 16 min

Bit rate : 899 kb/s

Width : 1 280 pixels

Height : 534 pixels

Display aspect ratio : 2.40:1

Frame rate mode : Constant

Frame rate : 23.976 (24000/1001) FPS

Color space : YUV

Chroma subsampling : 4:2:0

Bit depth : 8 bits

Scan type : Progressive

Bits/(Pixel*Frame) : 0.055

Stream size : 876 MiB (81%)

Title : GOPI SAHI

Writing library : x264 core 157 r2935 545de2f

Audio #1

ID : 2

Format : AAC LC

Format/Info : Advanced Audio Codec Low Complexity

Codec ID : A_AAC-2

Duration : 2 h 16 min

Bit rate : 96.0 kb/s

Channel(s) : 2 channels

Channel layout : L R

Sampling rate : 48.0 kHz

Frame rate : 46.875 FPS (1024 SPF)

Compression mode : Lossy

Delay relative to video : -21 ms

Stream size : 94.0 MiB (9%)

Title : GOPI SAHI

Language : Hindi

Default : Yes

Forced : No

Audio #2

ID : 3

Format : AAC LC

Format/Info : Advanced Audio Codec Low Complexity

Codec ID : A_AAC-2

Duration : 2 h 16 min

Bit rate : 96.0 kb/s

Channel(s) : 2 channels

Channel layout : L R

Sampling rate : 48.0 kHz

Frame rate : 46.875 FPS (1024 SPF)

Compression mode : Lossy

Delay relative to video : -21 ms

Stream size : 94.0 MiB (9%)

Title : GOPI SAHI

Language : English

Default : No

Forced : No

Text #1

ID : 4

Format : PGS

Muxing mode : zlib

Codec ID : S_HDMV/PGS

Codec ID/Info : Picture based subtitle format used on BDs/HD-DVDs

Duration : 2 h 9 min

Bit rate : 24.9 kb/s

Count of elements : 3070

Stream size : 23.0 MiB (2%)

Title : GOPI SAHI

Language : English

Default : Yes

Forced : Yes

Text #2

ID : 5

Format : PGS

Muxing mode : zlib

Codec ID : S_HDMV/PGS

Codec ID/Info : Picture based subtitle format used on BDs/HD-DVDs

Duration : 2 h 9 min

Bit rate : 24.0 kb/s

Count of elements : 3128

Stream size : 22.2 MiB (2%)

Title : GOPI SAHI

Language : Hindi

Default : No

Forced : No

Menu #1

00:00:00.000 : :00:00:00.000

00:07:45.924 : :00:07:45.924

00:14:39.670 : :00:14:39.670

00:22:57.543 : :00:22:57.543

00:32:58.226 : :00:32:58.226

00:41:25.066 : :00:41:25.066

00:48:42.503 : :00:48:42.503

00:55:10.974 : :00:55:10.933

01:03:17.294 : :01:03:17.293

01:12:29.011 : :01:12:29.011

01:17:51.750 : :01:17:51.750

01:24:38.949 : :01:24:38.949

01:34:04.722 : :01:34:04.556

01:42:59.548 : :01:42:59.548

01:52:16.480 : :01:52:16.355

02:00:52.912 : :02:00:52.912

Menu #2

00:00:00.000 : :00:00:00.000

00:07:45.924 : :00:07:45.924

00:14:39.670 : :00:14:39.670

00:22:57.543 : :00:22:57.543

00:32:58.226 : :00:32:58.226

00:41:25.066 : :00:41:25.066

00:48:42.503 : :00:48:42.503

00:55:10.933 : :00:55:10.933

01:03:17.293 : :01:03:17.293

01:12:29.011 : :01:12:29.011

01:17:51.750 : :01:17:51.750

01:24:38.949 : :01:24:38.949

01:34:04.556 : :01:34:04.556

01:42:59.548 : :01:42:59.548

01:52:16.355 : :01:52:16.355

02:00:52.912 : :02:00:52.912

The Amazing Spider-Man 2012 xDownload Torrent Magnet

#Amazing #SpiderMan