The Amazing Colossal Man – I Full Torrent Magnet Download

Download Torrent The Amazing Colossal Man – I Movie Full in HD Result. Movie The Amazing Colossal Man – I Torrent Download full. Movie The Amazing Colossal Man – I torrent Magnet Download Full. The Amazing Colossal Man – I Full Movie Torrent Download And Magnet Download For your PC And Mobiles. Latest Movie The Amazing Colossal Man – I Download Link In Bottom.

Torrent And Magnet Links Below

The Amazing Colossal Man – I giganti invadono la terra (1957) SD H264 Ac3 2.0 Ita Eng-MIRCrew


NO FOUND ONLY ORIGINAL RELEASE

My release is always in double track audio italian and Original audio

for select it use VLC or dvd player home

not use wmp

I giganti invadono la terra – The Amazing Colossal Man (1957) SD

Quality MIRCrew on SD da 1,0 gb

I giganti invadono la Terra (The Amazing Colossal Man) è un film del 1957 diretto da Bert I. Gordon. È una pellicola di fantascienza in bianco e nero con protagonista Glenn Langan, incentrata su un uomo che cresce fino ai 18 metri di altezza come conseguenza di un incidente nucleare. È un adattamento non ufficiale del romanzo di Homer Eon Flint L’uomo “N” (The Nth Man, 1928)

Titolo originale The Amazing Colossal Man

Lingua originale inglese

Paese di produzione Stati Uniti d’America

Anno 1957

Durata 80 min

Dati tecnici B/N

Genere fantascienza, drammatico

Regia Bert I. Gordon

Soggetto Homer Eon Flint (romanzo, non accreditato)

Sceneggiatura Mark Hanna, Bert I. Gordon, George Worthing Yates (non accreditato)

Glenn Langan: ten. col. Glenn Manning

Cathy Downs: Carol Forrest

William Hudson: dott. Paul Linstrom

Larry Thor: magg. Eric Coulter, MD

James Seay: col. Hallock

Russ Bender: Richard Kingman

Hank Patterson: Henry

June Jocelyn: infermiera Wilson

Stanley Lachman: ten. Cline

Scott Peters: serg. Lee Carter

Edmund Cobb: dott. McDermott

Un’esplosione di prova della prima atomica al plutonio è prevista per la prima mattina in un sito militare a Desert Rock in Nevada. Quando la reazione a catena per la carica fallisce il suo ciclo e non esplode come previsto, il tenente Glenn Manning riceve l’ordine di tenere i suoi uomini nella trincea di protezione, dato che si attende ancora l’esplosione ma non si sa quando avverrà.

Lt. Col. Glenn Manning is inadvertently exposed to a plutonium bomb blast at Camp Desert Rock. Though burned over 90% of his body, he survives, and begins to grow in size. As he grows, his heart and circulatory system fail to keep pace with his growth, and he is gradually losing his mind as a result of reduced blood supply to his brain

[spoiler]General

Complete name : I giganti invadono la terra – The Amazing Colossal Man (1957) SD H264 Ac3 2.0 Ita Eng-MIRCrew.mkv

Format : Matroska

Format version : Version 2

File size : 1.08 GiB

Duration : 1h 16mn

Overall bit rate : 2 015 Kbps

Encoded date : UTC 2021-01-30 08:31:49

Writing application : mkvmerge v5.4.0 (‘Piper’) built on Mar 10 2012 13:34:39

Writing library : Lavf58.20.100

Video

ID : 1

Format : AVC

Format/Info : Advanced Video Codec

Format profile : [email protected]
Format settings, CABAC : Yes

Format settings, ReFrames : 4 frames

Codec ID : V_MPEG4/ISO/AVC

Duration : 1h 16mn

Bit rate : 1 500 Kbps

Width : 720 pixels

Height : 544 pixels

Display aspect ratio : 4:3

Frame rate : 25.000 fps

Color space : YUV

Chroma subsampling : 4:2:0

Bit depth : 8 bits

Scan type : Progressive

Bits/(Pixel*Frame) : 0.153

Stream size : 802 MiB (73%)

Title : MIRCrew

Writing library : x264 core 157 r2935 545de2f

Encoding settings : cabac=1 / ref=2 / deblock=1:0:0
Language : Italian

Default : Yes

Forced : No

DURATION : 01:16:37.005000000

Color primaries : BT.470-6 System B, BT.470-6 System G, BT.601-6 625, BT.1358 625, BT.1700 625 PAL, BT.1700 625 SECAM

Transfer characteristics : BT.709-5, BT.1361

Matrix coefficients : BT.601-6 525, BT.1358 525, BT.1700 NTSC, SMPTE 170M

Audio #1

ID : 2

Format : AC-3

Format/Info : Audio Coding 3

Format profile : Dolby Digital

Mode extension : CM (complete main)

Codec ID : A_AC3

Duration : 1h 16mn

Bit rate mode : Constant

Bit rate : 256 Kbps

Channel(s) : 2 channels

Channel positions : Front: L R

Sampling rate : 48.0 KHz

Bit depth : 16 bits

Compression mode : Lossy

Delay relative to video : -85ms

Stream size : 140 MiB (13%)

Title : Ita Ac3 2.0

Language : Italian

Default : Yes

Forced : No

DURATION : 01:16:36.832000000

Audio #2

ID : 3

Format : AC-3

Format/Info : Audio Coding 3

Format profile : Dolby Digital

Mode extension : CM (complete main)

Codec ID : A_AC3

Duration : 1h 16mn

Bit rate mode : Constant

Bit rate : 256 Kbps

Channel(s) : 2 channels

Channel positions : Front: L R

Sampling rate : 48.0 KHz

Bit depth : 16 bits

Compression mode : Lossy

Delay relative to video : -85ms

Stream size : 140 MiB (13%)

Title : Eng Ac3 2.0

Language : English

Default : No

Forced : No

DURATION : 01:16:36.832000000

Menu

00:00:00.080 : :Chapter 1

00:06:28.280 : :Chapter 2

00:12:51.080 : :Chapter 3

00:19:15.080 : :Chapter 4

00:25:36.680 : :Chapter 5

00:31:59.480 : :Chapter 6

00:38:22.280 : :Chapter 7

00:44:43.280 : :Chapter 8

00:51:03.680 : :Chapter 9

00:57:25.880 : :Chapter 10

01:03:47.480 : :Chapter 11

01:10:10.880 : :Chapter 12

[/spoiler]

The Amazing Colossal Man – I Download Torrent Magnet

#Amazing #Colossal #Man