Thank U Vitthala 2017 Marathi Full Torrent Magnet Download

Download Torrent Thank U Vitthala 2017 Marathi Movie Full in HD Result. Movie Thank U Vitthala 2017 Marathi Torrent Download full. Movie Thank U Vitthala 2017 Marathi torrent Magnet Download Full. Thank U Vitthala 2017 Marathi Full Movie Torrent Download And Magnet Download For your PC And Mobiles. Latest Movie Thank U Vitthala 2017 Marathi Download Link In Bottom.

Torrent And Magnet Links Below











General

Complete name : Thank U Vitthala 2017 Marathi 1080p Web-DL x264 AAC [TMB].mkv

Format : Matroska

Format version : Version 4

File size : 1.52 GiB

Duration : 1 h 57 min

Overall bit rate : 1 862 kb/s

Video

ID : Format : AVC

Format/Info : Advanced Video Codec

Format profile : [email protected]
Format settings : CABAC / 4 Ref Frames

Format settings, CABAC : Yes

Format settings, Reference : 4 frames

Format settings, GOP : M=4, N=50

Codec ID : V_MPEG4/ISO/AVC

Duration : 1 h 57 min

Bit rate : 1 800 kb/s

Width : 1 920 pixels

Height : 1 080 pixels

Display aspect ratio : 16:9

Frame rate mode : Constant

Frame rate : 25.000 FPS

Color space : YUV

Chroma subsampling : 4:2:0

Bit depth : 8 bits

Scan type : Progressive

Bits/(Pixel*Frame) : 0.035

Stream size : 1.47 GiB (96%)

Audio

Format : AAC LC

Format/Info : Advanced Audio Codec Low Complexity

Codec ID : A_AAC-2

Duration : 1 h 57 min

Bit rate : 64.3 kb/s

Channel(s) : 2 channels

Channel layout : L R

Sampling rate : 48.0 kHz

Frame rate : 46.875 FPS (1024 SPF)

Compression mode : Lossy

Delay relative to video : -80 ms

Stream size : 53.9 MiB (3%)

Uploaded & Shared by TMB

Seeding 24×7… Extreme Seeding…

Enjoy!

Thank U Vitthala 2017 MarathiDownload Torrent Magnet

#Vitthala #Marathi