Ted.2012.UNRATED.CUT.BRRip.Xv Full Torrent Magnet Download

Download Torrent Ted.2012.UNRATED.CUT.BRRip.Xv Movie Full in HD Result. Movie Ted.2012.UNRATED.CUT.BRRip.Xv Torrent Download full. Movie Ted.2012.UNRATED.CUT.BRRip.Xv torrent Magnet Download Full. Ted.2012.UNRATED.CUT.BRRip.Xv Full Movie Torrent Download And Magnet Download For your PC And Mobiles. Latest Movie Ted.2012.UNRATED.CUT.BRRip.Xv Download Link In Bottom.

Torrent And Magnet Links Below

Ted.2012.UNRATED.CUT.BRRip.XviD.B4ND1T69

Director: Seth MacFarlane

Writers: Seth MacFarlane (screenplay by), Alec Sulkin (screenplay by)

Stars: Mark Wahlberg, Mila Kunis, Seth MacFarlane

Plot/Story:

John Bennett, a man whose childhood wish of bringing his teddy bear to life came true, now must decide between keeping the relationship with the bear, Ted or his girlfriend, Lori.

General

Complete name : Ted.2012.UNRATED.CUT.BRRip.XviD.B4ND1T69.avi

Format : AVI

Format/Info : Audio Video Interleave

File size : 1.18 GiB

Duration : 1 h 52 min

Overall bit rate : 1 507 kb/s

Subtitles : Yes…Included(HI)

Video

ID : 0

Format : MPEG-4 Visual

Format profile : Advanced [email protected]
Format settings, BVOP : 2

Format settings, QPel : No

Format settings, GMC : No warppoints

Format settings, Matrix : Default (H.263)

Codec ID : XVID

Codec ID/Hint : XviD

Duration : 1 h 52 min

Bit rate : 1 366 kb/s

Width : 720 pixels

Height : 390 pixels

Display aspect ratio : 1.85:1

Frame rate : 23.976 (24000/1001) FPS

Color space : YUV

Chroma subsampling : 4:2:0

Bit depth : 8 bits

Scan type : Progressive

Compression mode : Lossy

Bits/(Pixel*Frame) : 0.203

Stream size : 1.07 GiB (91%)

Writing library : XviD 64

Audio

ID : 1

Format : MPEG Audio

Format version : Version 1

Format profile : Layer 3

Codec ID : 55

Codec ID/Hint : MP3

Duration : 1 h 52 min

Bit rate mode : Constant

Bit rate : 128 kb/s

Channel(s) : 2 channels

Sampling rate : 48.0 kHz

Compression mode : Lossy

Stream size : 103 MiB (8%)

Alignment : Aligned on interleaves

Interleave, duration : 24 ms (0.58 video frame)

Screenshots:









Please Seed For As Long As Possible

Or At Least 1:1 Ratio…Thanks

Enjoy Peeps

Ted.2012.UNRATED.CUT.BRRip.XvDownload Torrent Magnet

#Ted2012UNRATEDCUTBRRipXv