Ted.2.2015.EXTENDED.CUT.BRRip Full Torrent Magnet Download

Download Torrent Ted.2.2015.EXTENDED.CUT.BRRip Movie Full in HD Result. Movie Ted.2.2015.EXTENDED.CUT.BRRip Torrent Download full. Movie Ted.2.2015.EXTENDED.CUT.BRRip torrent Magnet Download Full. Ted.2.2015.EXTENDED.CUT.BRRip Full Movie Torrent Download And Magnet Download For your PC And Mobiles. Latest Movie Ted.2.2015.EXTENDED.CUT.BRRip Download Link In Bottom.

Torrent And Magnet Links Below

Ted.2.2015.EXTENDED.CUT.BRRip.XviD.B4ND1T69

Director: Seth MacFarlane

Writers: Seth MacFarlane, Alec Sulkin

Stars: Mark Wahlberg, Seth MacFarlane, Amanda Seyfried

Plot/Story:

Newlywed couple Ted and Tami-Lynn want to have a baby, but in order to qualify to be a parent, Ted will have to prove he’s a person in a court of law.

General

Complete name : Ted.2.2015.EXTENDED.CUT.BRRip.XviD.B4ND1T69.avi

Format : AVI

Format/Info : Audio Video Interleave

File size : 1.51 GiB

Duration : 2 h 5 min

Overall bit rate : 1 714 kb/s

Subtitles : Yes…Included(HI)

Video

ID : 0

Format : MPEG-4 Visual

Format profile : Advanced [email protected]
Format settings, BVOP : 2

Format settings, QPel : No

Format settings, GMC : No warppoints

Format settings, Matrix : Default (H.263)

Codec ID : XVID

Codec ID/Hint : XviD

Duration : 2 h 5 min

Bit rate : 1 573 kb/s

Width : 720 pixels

Height : 304 pixels

Display aspect ratio : 2.35:1

Frame rate : 24.390 FPS

Color space : YUV

Chroma subsampling : 4:2:0

Bit depth : 8 bits

Scan type : Progressive

Compression mode : Lossy

Bits/(Pixel*Frame) : 0.295

Stream size : 1.38 GiB (92%)

Writing library : XviD 64

Audio

ID : 1

Format : MPEG Audio

Format version : Version 1

Format profile : Layer 3

Codec ID : 55

Codec ID/Hint : MP3

Duration : 2 h 5 min

Bit rate mode : Constant

Bit rate : 128 kb/s

Channel(s) : 2 channels

Sampling rate : 48.0 kHz

Compression mode : Lossy

Stream size : 115 MiB (7%)

Alignment : Aligned on interleaves

Interleave, duration : 24 ms (0.59 video frame)

Screenshots:









Please Seed For As Long As Possible

Or At Least 1:1 Ratio…Thanks

Enjoy Peeps

Ted.2.2015.EXTENDED.CUT.BRRipDownload Torrent Magnet

#Ted22015EXTENDEDCUTBRRip