Tears of the Sun 2003 Theatri Full Torrent Magnet Download

Download Torrent Tears of the Sun 2003 Theatri Movie Full in HD Result. Movie Tears of the Sun 2003 Theatri Torrent Download full. Movie Tears of the Sun 2003 Theatri torrent Magnet Download Full. Tears of the Sun 2003 Theatri Full Movie Torrent Download And Magnet Download For your PC And Mobiles. Latest Movie Tears of the Sun 2003 Theatri Download Link In Bottom.

Torrent And Magnet Links Below

______________________________________________________________________________________________________________
Tears of the Sun 2003
Bluray · 1080p x265 10bits · DD+ 5.1 VFF ENG · Theatrical
More Bonus
¯¯¯¯¯¯¯¯¯¯¯¯¯¯¯¯¯¯¯¯¯¯¯¯¯¯¯¯¯¯¯¯¯¯¯¯¯¯¯¯¯¯¯¯¯¯¯¯¯¯¯¯¯¯¯¯¯¯¯¯¯¯¯¯¯¯¯¯¯¯¯¯¯¯¯¯¯¯¯¯

Year : 2003

Country : United States

Version : Theatrical Edition

Original and English Title : Tears of the Sun

French Title : Les larmes du soleil

Director : Antoine Fuqua
Music from : Hans Zimmer, Steve Jablonsky, Mel Wesson, Heitor Pereira, James Michael Dooley, Martin Tillman, Lisa Gerrard, Trevor Morris

Acteurs : Bruce Willis, Monica Bellucci, Cole Hauser, Eamonn Walker, Nick Chinlund, Fionnula Flanagan, Malick Bowens, Tom Skerritt

Johnny Messner, Paul Francis, Chad Smith, Akosua Bosia, Peter Mensah, Charles Ingram

Genre : War, Action, Drama, Thriller

Certificate : Not recommended for children under 12 years old
Budget : 75 000 000 $ · Recipe : 169 165 744 $ · ratio : 226 %

Link : Allociné 3,2 /5 · IMDB 6,6 /10 · TMDB 65 % · SensCritique 5,6 /10 · Wiki · Bande Annonce

French Plot
Au Nigéria , la famille du Président vient d’être assassinée et une guerre civile est sur le point d’éclater. Un commando secret mené par le lieutenant Waters est envoyé aux confins de la jungle afin de faire évacuer Lena Kendriks , une femme médecin travaillant pour une organisation humanitaire , d’un village menacé par les rebelles. Mais le cours de la mission change lorsque celle-ci refuse de partir sans les villageois…

Bonus
Deleted Scene 1 3 mn – 36,90 Mib – 720×480 HEVC 10Bits – VOSTFR – b6a01e2c
Deleted Scene 2 2 mn – 24,80 Mib – 720×480 HEVC 10Bits – VOSTFR – 6ef6645d
Deleted Scene 3 2 mn – 16,00 Mib – 720×480 HEVC 10Bits – VOSTFR – d8d55af1
Deleted Scene 4 26 s – 3,01 Mib – 720×480 HEVC 10Bits – VO – aaf0de00
Deleted Scene 5 1 mn – 8,72 Mib – 720×480 HEVC 10Bits – VO – ff10fbd9
Deleted Scene 6 2 mn – 24,80 Mib – 720×480 HEVC 10Bits – VOSTFR – c3bfa303
Deleted Scene 7 1 mn – 7,40 Mib – 720×480 HEVC 10Bits – VOSTFR – 6d36c542
Deleted Scene 8 3 mn – 24,90 Mib – 720×480 HEVC 10Bits – VOSTFR – 0bfda8c8
Bluray Opening 1 mn – 21,20 Mib – 1920×1080 HEVC 10Bits – MUSIQUE – 46de5591
9 bonus, total 167,7 Mib 19 mn


If you enjoy and wish to support, please stay in seeding

Technical Details
¯¯¯¯¯¯¯¯¯¯¯¯¯¯¯¯¯¯¯¯¯¯¯¯¯¯¯¯¯¯¯¯¯¯¯¯¯¯¯¯¯¯¯¯¯¯¯¯¯¯¯¯¯¯¯¯¯¯¯¯¯¯¯¯¯¯¯¯¯¯¯¯¯¯¯¯¯¯¯¯¯¯¯¯¯¯¯¯¯¯¯¯¯¯¯¯¯¯¯¯
Media
Matroska 4,03 Gio 2 h00 mn 4769 Kbps, Total 4,19 Gio 2 h19 mn
Video
HEVC/H265 1920 x800 @23.976 [email protected]@Main 10 bits 3349 Kbps VerySlow qp27,27
Audio
True French 5.1 EAC3 448 Kbps 48KHz 16bits

English (OV) 5.1 AC3 448 Kbps 48KHz 16bits (original)

English Commentary by Antoine Fuqua 2.0 EAC3 128 Kbps 48KHz 16bits

English Commentary by Alex Lasker and Pat Cirillo 2.0 EAC3 128 Kbps 48KHz 16bits

Subtitles
True French forced SRT
True French full SRT
True French full/forced PGS
True French notes informative PGS
True French Commentary by Antoine Fuqua PGS
True French Commentary by Alex Lasker and Pat Cirillo PGS
English full PGS
English informative notes PGS
Chapters
International, True French, English

Screenshot

Origin
Bluray : Video MPEG Video 1080p 16589 Kbps, VFF 5.1 PCM 4608 Kbps, ENG 5.1 AC3 448 Kbps

NFO
¯¯¯¯¯¯¯¯¯¯¯¯¯¯¯¯¯¯¯¯¯¯¯¯¯¯¯¯¯¯¯¯¯¯¯¯¯¯¯¯¯¯¯¯¯¯¯¯¯¯¯¯¯¯¯¯¯¯¯¯¯¯¯¯¯¯¯¯¯¯¯¯¯¯¯¯¯¯¯¯¯¯¯¯¯¯¯¯¯¯¯¯¯¯¯¯¯¯¯¯

General
Complete name : Tears of the Sun 2003 Cinema BR EAC3 VFF ENG 1080p x265 10Bits T0M.mkv

Format : Matroska
Format version : Version 4

File size : 4.03 GiB
Duration : 2 h 0 min

Overall bit rate : 4 769 kb/s

Movie name : Les larmes du soleil (Tears of the Sun) 2003 de Antoine Fuqua avec Bruce Willis, Monica Bellucci, Cole Hauser, Eamonn Walker, Nick Chinlund, Fionnula Flanagan, Malick Bowens, Tom Skerritt, Johnny Messner, Paul Francis, Chad Smith, Akosua Bosia, Peter Mensah, Charles Ingram. -12 ans (allocine=28512,imdb=tt0314353) T0M
Encoded date : UTC 2019-08-05 11:20:26

Writing application : mkvmerge v35.0.0 (‘All The Love In The World’) 64-bit

Writing library : libebml v1.3.9 + libmatroska v1.5.2

Cover : Yes

Attachments : Cover.jpg

Video
ID : 1

Format : HEVC
Format/Info : High Efficiency Video Coding

Format profile : Main [email protected]@Main

Codec ID : V_MPEGH/ISO/HEVC

Duration : 2 h 0 min

Bit rate : 3 349 kb/s

Width : 1 920 pixels

Height : 800 pixels

Display aspect ratio : 2.40:1

Frame rate mode : Constant

Frame rate : 23.976 (24000/1001) FPS

Color space : YUV

Chroma subsampling : 4:2:0

Bit depth : 10 bits

Bits/(Pixel*Frame) : 0.091

Stream size : 2.83 GiB (70%)

Title : Video HEVC 1920×800 @23.976 x265 [email protected]@Main 10bits 3350kbps 2pass veryslow 2072mn
Writing library : x265 2.9:[Windows][GCC 8.2.0][64 bit] 10bit

Encoding settings : cpuid=1111039 / frame-threads=3 / numa-pools=8 / wpp / no-pmode / no-pme / no-psnr / no-ssim / log-level=2 / input-csp=1 / input-res=1920×800 / interlace=0 / total-frames=0 / level-idc=0 / high-tier=1 / uhd-bd=0 / ref=5 / no-allow-non-conformance / no-repeat-headers / annexb / no-aud / no-hrd / info / hash=0 / no-temporal-layers / open-gop / min-keyint=24 / keyint=240 / gop-lookahead=0 / bframes=8 / b-adapt=2 / b-pyramid / bframe-bias=0 / rc-lookahead=120 / lookahead-slices=0 / scenecut=40 / radl=0 / no-intra-refresh / ctu=64 / min-cu-size=8 / rect / amp / max-tu-size=32 / tu-inter-depth=3 / tu-intra-depth=3 / limit-tu=4 / rdoq-level=2 / dynamic-rd=0.00 / no-ssim-rd / signhide / no-tskip / nr-intra=0 / nr-inter=0 / no-constrained-intra / strong-intra-smoothing / max-merge=4 / limit-refs=1 / limit-modes / me=3 / subme=4 / merange=57 / temporal-mvp / weightp / weightb / no-analyze-src-pics / deblock=0:0 / sao / no-sao-non-deblock / rd=6 / no-early-skip / rskip / no-fast-intra / no-tskip-fast / no-cu-lossless / b-intra / no-splitrd-skip / rdpenalty=0 / psy-rd=2.00 / psy-rdoq=1.00 / no-rd-refine / no-lossless / cbqpoffs=0 / crqpoffs=0 / rc=abr / bitrate=3350 / qcomp=0.60 / qpstep=4 / stats-write=0 / stats-Read=2 / cplxblur=20.0 / qblur=0.5 / ipratio=1.40 / pbratio=1.30 / aq-mode=1 / aq-strength=1.00 / cutree / zone-count=0 / no-strict-cbr / qg-size=32 / no-rc-grain / qpmax=69 / qpmin=0 / no-const-vbv / sar=1 / overscan=0 / videoformat=5 / range=0 / colorprim=1 / transfer=1 / colormatrix=1 / chromaloc=0 / display-window=0 / max-cll=0,0 / min-luma=0 / max-luma=1023 / log2-max-poc-lsb=8 / vui-timing-info / vui-hrd-info / slices=1 / no-opt-qp-pps / no-opt-ref-list-length-pps / no-multi-pass-opt-rps / scenecut-bias=0.05 / no-opt-cu-delta-qp / no-aq-motion / no-hdr / no-hdr-opt / no-dhdr10-opt / no-idr-recovery-sei / analysis-reuse-level=5 / scale-factor=0 / refine-intra=0 / refine-inter=0 / refine-mv=0 / no-limit-sao / ctu-info=0 / no-lowpass-dct / refine-mv-type=0 / copy-pic=1 / max-ausize-factor=1.0 / no-dynamic-refine / no-single-sei

Default : Yes

Forced : No

Color range : Limited

Color primaries : BT.709

Transfer characteristics : BT.709

Matrix coefficients : BT.709

Audio #1
ID : 2

Format : E-AC-3
Format/Info : Enhanced AC-3

Commercial name : Dolby Digital Plus

Codec ID : A_EAC3

Duration : 2 h 0 min

Bit rate mode : Constant

Bit rate : 448 kb/s

Channel(s) : 6 channels

Channel layout : L R C LFE Ls Rs

Sampling rate : 48.0 kHz

Frame rate : 31.250 FPS (1536 SPF)

Compression mode : Lossy

Stream size : 387 MiB (9%)

Title : Français 5.1 EAC3 448kbps 48khz 16bits
Language : French
Service kind : Complete Main

Default : Yes

Forced : No

Audio #2
ID : 3

Format : AC-3
Format/Info : Audio Coding 3

Commercial name : Dolby Digital

Codec ID : A_AC3

Duration : 2 h 0 min

Bit rate mode : Constant

Bit rate : 448 kb/s

Channel(s) : 6 channels

Channel layout : L R C LFE Ls Rs

Sampling rate : 48.0 kHz

Frame rate : 31.250 FPS (1536 SPF)

Bit depth : 16 bits

Compression mode : Lossy

Delay relative to video : 5 ms

Stream size : 387 MiB (9%)

Title : English 5.1 AC3 448kbps 48khz 16bits (original)
Language : English
Service kind : Complete Main

Default : No

Forced : No

Audio #3
ID : 4

Format : E-AC-3
Format/Info : Enhanced AC-3

Commercial name : Dolby Digital Plus

Codec ID : A_EAC3

Duration : 2 h 0 min

Bit rate mode : Constant

Bit rate : 128 kb/s

Channel(s) : 2 channels

Channel layout : L R

Sampling rate : 48.0 kHz

Frame rate : 31.250 FPS (1536 SPF)

Compression mode : Lossy

Stream size : 111 MiB (3%)

Title : English comment by Antoine Fuqua 2.0 EAC3 128kbps 48khz 16bits
Language : English
Service kind : Complete Main

Default : No

Forced : No

Audio #4
ID : 5

Format : E-AC-3
Format/Info : Enhanced AC-3

Commercial name : Dolby Digital Plus

Codec ID : A_EAC3

Duration : 2 h 0 min

Bit rate mode : Constant

Bit rate : 128 kb/s

Channel(s) : 2 channels

Channel layout : L R

Sampling rate : 48.0 kHz

Frame rate : 31.250 FPS (1536 SPF)

Compression mode : Lossy

Stream size : 111 MiB (3%)

Title : English comment by Alex Lasker and Pat Cirillo 2.0 EAC3 128kbps 48khz 16bits
Language : English
Service kind : Complete Main

Default : No

Forced : No

Text #1
ID : 6

Format : UTF-8
Codec ID : S_TEXT/UTF8

Codec ID/Info : UTF-8 Plain Text

Duration : 2 h 0 min

Bit rate : 0 b/s

Count of elements : 7

Stream size : 555 Bytes (0%)

Title : Français forcé (Passages)
Language : French
Default : Yes

Forced : Yes

Text #2
ID : 7

Format : UTF-8
Codec ID : S_TEXT/UTF8

Codec ID/Info : UTF-8 Plain Text

Duration : 2 h 0 min

Bit rate : 28 b/s

Count of elements : 808

Stream size : 24.9 KiB (0%)

Title : Français complet (Tous le film)
Language : French
Default : No

Forced : No

Text #3
ID : 8

Format : PGS
Muxing mode : zlib

Codec ID : S_HDMV/PGS

Codec ID/Info : Picture based subtitle format used on BDs/HD-DVDs

Duration : 1 h 59 min

Bit rate : 26.5 kb/s

Count of elements : 1614

Stream size : 22.7 MiB (1%)

Title : Français complet/forcé PGS
Language : French
Default : No

Forced : No

Text #4
ID : 9

Format : PGS
Muxing mode : zlib

Codec ID : S_HDMV/PGS

Codec ID/Info : Picture based subtitle format used on BDs/HD-DVDs

Duration : 1 h 55 min

Bit rate : 129 kb/s

Count of elements : 3071

Stream size : 107 MiB (3%)

Title : Français notes informative PGS
Language : French
Default : No

Forced : No

Text #5
ID : 10

Format : PGS
Muxing mode : zlib

Codec ID : S_HDMV/PGS

Codec ID/Info : Picture based subtitle format used on BDs/HD-DVDs

Duration : 1 h 56 min

Bit rate : 77.3 kb/s

Count of elements : 3431

Stream size : 64.4 MiB (2%)

Title : Français commentaire de Antoine Fuqua PGS
Language : French
Default : No

Forced : No

Text #6
ID : 11

Format : PGS
Muxing mode : zlib

Codec ID : S_HDMV/PGS

Codec ID/Info : Picture based subtitle format used on BDs/HD-DVDs

Duration : 1 h 52 min

Bit rate : 36.1 kb/s

Count of elements : 1847

Stream size : 29.0 MiB (1%)

Title : Français commentaire de Alex Lasker et Pat Cirillo PGS
Language : French
Default : No

Forced : No

Text #7
ID : 12

Format : PGS
Muxing mode : zlib

Codec ID : S_HDMV/PGS

Codec ID/Info : Picture based subtitle format used on BDs/HD-DVDs

Duration : 1 h 51 min

Bit rate : 36.3 kb/s

Count of elements : 1996

Stream size : 28.9 MiB (1%)

Title : English full (All the movie) PGS
Language : English
Default : No

Forced : No

Text #8
ID : 13

Format : PGS
Muxing mode : zlib

Codec ID : S_HDMV/PGS

Codec ID/Info : Picture based subtitle format used on BDs/HD-DVDs

Duration : 1 h 55 min

Bit rate : 129 kb/s

Count of elements : 3071

Stream size : 107 MiB (3%)

Title : English informative notes PGS
Language : English
Default : No

Forced : No

Menu
00:00:00.000 : :01 – 00:00:00 – fr:Début – en:Start

00:07:31.826 : :02 – 00:07:31 – fr:Quelque part au large des côtes africaines – en:Somewhere Off the Coast of Africa

00:15:26.467 : :03 – 00:15:26 – fr:Escadron d’élite du lieutenant Waters – en:Lt. Waters’ Elite Squadron

00:23:23.568 : :04 – 00:23:23 – fr:Le premier objectif – en:The Prime Objective

00:30:12.811 : :05 – 00:30:12 – fr:La Mission St. Michael – en:St. Michael’s Mission

00:36:49.665 : :06 – 00:36:49 – fr:Je ne partirai pas sans mon peuple. – en:I Will Not Leave Without My People.

00:45:13.544 : :07 – 00:45:13 – fr:Évacuer la Mission – en:Evacuating the Mission

00:53:35.879 : :08 – 00:53:35 – fr:Danger sur le sentier – en:Danger on the Trail

01:03:13.080 : :09 – 01:03:13 – fr:Nettoyer la maison de Dieu – en:Cleansing the House of God

01:09:24.493 : :10 – 01:09:24 – fr:Objectif atteint – en:Objective Accomplished

01:16:02.891 : :11 – 01:16:02 – fr:Brûler la Mission – en:Burn Down the Mission

01:24:27.604 : :12 – 01:24:27 – fr:Nous ne pouvons en prendre que douze. – en:We Can Only Take Twelve.

01:32:14.820 : :13 – 01:32:14 – fr:Hostiles possibles – en:Possible Hostiles

01:39:17.826 : :14 – 01:39:17 – fr:Nettoyage ethnique – en:Ringside Seats to an Ethnic Cleansing

01:44:19.503 : :15 – 01:44:19 – fr:Règle d’engagement – en:Rule of Engagement Party

01:48:34.925 : :16 – 01:48:34 – fr:Voilà ce qu’ils font. – en:This Is What They Do.

01:52:45.500 : :17 – 01:52:45 – fr:Générique – en:End Title

Tears of the Sun 2003 TheatriDownload Torrent Magnet

#Tears #Sun #Theatri