Synchronic.2019.BRRip.XviD.B4 Full Torrent Magnet Download

Download Torrent Synchronic.2019.BRRip.XviD.B4 Movie Full in HD Result. Movie Synchronic.2019.BRRip.XviD.B4 Torrent Download full. Movie Synchronic.2019.BRRip.XviD.B4 torrent Magnet Download Full. Synchronic.2019.BRRip.XviD.B4 Full Movie Torrent Download And Magnet Download For your PC And Mobiles. Latest Movie Synchronic.2019.BRRip.XviD.B4 Download Link In Bottom.

Torrent And Magnet Links Below

Synchronic.2019.BRRip.XviD.B4ND1T69

Directors: Justin Benson, Aaron Moorhead

Writer: Justin Benson

Stars: Anthony Mackie, Jamie Dornan, Katie Aselton

Plot/Story:

Two New Orleans paramedics’ lives are ripped apart after they encounter a series of horrific deaths linked to a designer drug with bizarre, otherworldly effects.

General

Complete name : Synchronic.2019.BRRip.XviD.B4ND1T69.avi

Format : AVI

Format/Info : Audio Video Interleave

File size : 666 MiB

Duration : 1 h 41 min

Overall bit rate : 915 kb/s

Subtitles : Yes…Included(HI)

Video

ID : 0

Format : MPEG-4 Visual

Format profile : Advanced [email protected]
Format settings, BVOP : 2

Format settings, QPel : No

Format settings, GMC : No warppoints

Format settings, Matrix : Default (H.263)

Codec ID : XVID

Codec ID/Hint : XviD

Duration : 1 h 41 min

Bit rate : 773 kb/s

Width : 720 pixels

Height : 304 pixels

Display aspect ratio : 2.35:1

Frame rate : 23.976 (24000/1001) FPS

Color space : YUV

Chroma subsampling : 4:2:0

Bit depth : 8 bits

Scan type : Progressive

Compression mode : Lossy

Bits/(Pixel*Frame) : 0.147

Stream size : 563 MiB (85%)

Writing library : XviD 64

Audio

ID : 1

Format : MPEG Audio

Format version : Version 1

Format profile : Layer 3

Codec ID : 55

Codec ID/Hint : MP3

Duration : 1 h 41 min

Bit rate mode : Constant

Bit rate : 128 kb/s

Channel(s) : 2 channels

Sampling rate : 48.0 kHz

Compression mode : Lossy

Stream size : 93.3 MiB (14%)

Alignment : Aligned on interleaves

Interleave, duration : 24 ms (0.58 video frame)

Screenshots:









Please Seed For As Long As Possible

Or At Least 1:1 Ratio…Thanks

Enjoy Peeps

Synchronic.2019.BRRip.XviD.B4Download Torrent Magnet

#Synchronic2019BRRipXviDB4