Sylvester Stallone Filmografi Full Torrent Magnet Download

Download Torrent Sylvester Stallone Filmografi Movie Full in HD Result. Movie Sylvester Stallone Filmografi Torrent Download full. Movie Sylvester Stallone Filmografi torrent Magnet Download Full. Sylvester Stallone Filmografi Full Movie Torrent Download And Magnet Download For your PC And Mobiles. Latest Movie Sylvester Stallone Filmografi Download Link In Bottom.

Torrent And Magnet Links Below

Sylvester Stallone Filmografi 1080p Part I Packs – iCMAL [TGx]

Sylvester Enzio Stallone (/stəˈloʊn/; born Michael Sylvester Gardenzio Stallone, July 6, 1946) is an American actor, director, producer, and screenwriter.[1] After his beginnings as a struggling actor for a number of years upon arriving to New York City in 1969 and later Hollywood in 1974, he won his first critical acclaim as an actor for his co-starring role as Stanley Rosiello in The Lords of Flatbush. Stallone subsequently found gradual work as an extra or side character in films with a sizeable budget until he achieved his greatest critical and commercial success as an actor, starting in 1976 with his self-created role as the boxer Rocky Balboa, in the first film of the successful Rocky series (1976–2018). In the films, Rocky is portrayed as an underdog boxer that fights numerous brutal opponents, and wins the world heavyweight championship twice.

In 1977, Stallone was the third actor in cinema to be nominated for two Academy Awards for Best Original Screenplay and Best Actor. Stallone’s film Rocky was inducted into the National Film Registry, and had its props placed in the Smithsonian Museum. Stallone’s use of the front entrance to the Philadelphia Museum of Art in the Rocky series led the area to be nicknamed the Rocky Steps, Philadelphia has a statue of his character Rocky placed permanently near the museum, and he was voted into the International Boxing Hall of Fame.

Up until 1982, Stallone’s films were not big box office successes unless they were Rocky sequels, and none received the critical acclaim achieved with the first Rocky. This changed with the successful action film First Blood in which he portrayed the PTSD-plagued soldier John Rambo. He would play the role in a total of five Rambo films (1982–2019). From the mid 1980s through to the late 1990s, Stallone would go on to become one of Hollywood’s highest-paid actors of that area by appearing in a slew of commercially successful action films, but generally panned by critics. These include Cobra, Tango and Cash, Cliffhanger, Demolition Man, and The Specialist.

Stallone saw a decline in popularity in the early 2000s, but rebounded back to prominence in 2006 with a sixth installment in the Rocky series and 2008 with a fourth in the Rambo series. In the 2010s, Stallone launched The Expendables films series (2010–2014), in which he played the lead as the mercenary Barney Ross. In 2013, he starred in the successful Escape Plan, and acted in its sequels. In 2015, Stallone returned to the Rocky series with Creed, that serve as spin-off films focusing on Adonis “Donnie” Creed played by Michael B. Jordan, the son of the ill-fated boxer Apollo Creed, to whom the long retired Rocky is a mentor. Reprising the role brought Stallone praise, and his first Golden Globe award for the first Creed, as well as a third Oscar nomination, having been first nominated for the same role 40 years prior.

Rocky.II.1080p.BluRay.DTS.x264-HDC

Rocky.III.1080p.BluRay.DTS.x264-HDC

Rocky.IV.1080p.BluRay.DTS.x264-HDC

The.Specialist.1994.BluRay.1080p.DTS.x264-PRoDJi

Format : Matroska

Format version : Version 1

File size : 14.6 GiB

Duration : 1 h 59 min

Overall bit rate : 17.6 Mb/s

Encoded date : UTC 2009-10-10 21:17:42

Writing application : mkvmerge v2.5.3 (‘Boogie’) built on Mar 7 2009 15:00:41

Writing library : libebml v0.7.7 + libmatroska v0.8.1

Video

ID : 1

Format : AVC

Format/Info : Advanced Video Codec

Format profile : [email protected]
Format settings : CABAC / 4 Ref Frames

Format settings, CABAC : Yes

Format settings, Reference frames : 4 frames

Codec ID : V_MPEG4/ISO/AVC

Duration : 1 h 59 min

Bit rate : 16.0 Mb/s

Width : 1 920 pixels

Height : 1 040 pixels

Display aspect ratio : 1.85:1

Frame rate mode : Constant

Frame rate : 23.976 (24000/1001) FPS

Color space : YUV

Chroma subsampling : 4:2:0

Bit depth : 8 bits

Scan type : Progressive

Bits/(Pixel*Frame) : 0.335

Stream size : 13.1 GiB (89%)

Title : 16 Mbps AVC MPEG-4

Writing library : x264 core 76 r1271M 496d79d

Encoding settings : cabac=1 / ref=4 / deblock=1:-3:-3 / analyse=0x3:0x113 / me=umh / subme=9 / psy=1 / psy_rd=1.0:0.0 / mixed_ref=1 / me_range=24 / chroma_me=1 / trellis=2 / 8x8dct=1 / cqm=0 / deadzone=21,11 / chroma_qp_offset=-2 / threads=6 / nr=0 / decimate=1 / mbaff=0 / bframes=4 / b_pyramid=0 / b_adapt=2 / b_bias=0 / direct=3 / wpredb=1 / keyint=250 / keyint_min=25 / scenecut=40 / rc_lookahead=70 / rc=2pass / mbtree=1 / bitrate=16039 / ratetol=1.0 / qcomp=0.70 / qpmin=10 / qpmax=51 / qpstep=4 / cplxblur=20.0 / qblur=0.5 / vbv_maxrate=50000 / vbv_bufsize=50000 / ip_ratio=1.30 / aq=1:0.80

Language : English

Default : Yes

Forced : No

Audio

ID : 2

Format : DTS

Format/Info : Digital Theater Systems

Codec ID : A_DTS

Duration : 1 h 59 min

Bit rate mode : Constant

Bit rate : 1 509 kb/s

Channel(s) : 6 channels

Channel layout : C L R Ls Rs LFE

Sampling rate : 48.0 kHz

Frame rate : 93.750 FPS (512 SPF)

Bit depth : 24 bits

Compression mode : Lossy

Stream size : 1.26 GiB (9%)

Title : 5.1 DTS @ 1536 kbps

Language : English

Default : Yes

Forced : No

Text #1

ID : 3

Format : UTF-8

Codec ID : S_TEXT/UTF8

Codec ID/Info : UTF-8 Plain Text

Language : German

Default : No

Forced : No

Text #2

ID : 4

Format : UTF-8

Codec ID : S_TEXT/UTF8

Codec ID/Info : UTF-8 Plain Text

Language : English

Default : No

Forced : No

Text #3

ID : 5

Format : UTF-8

Codec ID : S_TEXT/UTF8

Codec ID/Info : UTF-8 Plain Text

Title : FORCED

Language : German

Default : No

Forced : No

Menu

00:00:00.000 : en:00:00:00.000

00:07:50.053 : en:00:07:50.053

00:14:07.013 : en:00:14:07.013

00:22:02.905 : en:00:22:02.905

00:29:24.513 : en:00:29:24.513

00:40:48.905 : en:00:40:48.905

00:49:56.452 : en:00:49:56.452

01:01:53.668 : en:01:01:53.668

01:04:21.524 : en:01:04:21.524

01:12:01.734 : en:01:12:01.734

01:17:00.574 : en:01:17:00.574

01:26:27.766 : en:01:26:27.766

01:32:41.097 : en:01:32:41.097

01:41:27.540 : en:01:41:27.540

01:51:54.541 : en:01:51:54.541

01:54:41.291 : en:01:54:41.291

Sylvester Stallone FilmografiDownload Torrent Magnet

#Sylvester #Stallone #Filmografi