Surrogates 2009 Bonus BR EAC3 Full Torrent Magnet Download

Download Torrent Surrogates 2009 Bonus BR EAC3 Movie Full in HD Result. Movie Surrogates 2009 Bonus BR EAC3 Torrent Download full. Movie Surrogates 2009 Bonus BR EAC3 torrent Magnet Download Full. Surrogates 2009 Bonus BR EAC3 Full Movie Torrent Download And Magnet Download For your PC And Mobiles. Latest Movie Surrogates 2009 Bonus BR EAC3 Download Link In Bottom.

Torrent And Magnet Links Below

______________________________________________________________________________________________________________
Surrogates 2009
Bluray · 1080p x265 10bits · DD+ 5.1 VFF VFQ ENG
More Bonus
¯¯¯¯¯¯¯¯¯¯¯¯¯¯¯¯¯¯¯¯¯¯¯¯¯¯¯¯¯¯¯¯¯¯¯¯¯¯¯¯¯¯¯¯¯¯¯¯¯¯¯¯¯¯¯¯¯¯¯¯¯¯¯¯¯¯¯¯¯¯¯¯¯¯¯¯¯¯¯¯

Year : 2009

Country : United States

Original and English Title : Surrogates

French and Quebec Title : Clones

Director : Jonathan Mostow
Music from : Richard Marvin

Acteurs : Bruce Willis, Radha Mitchell, Rosamund Pike, Boris Kodjoe, James Francis Ginty, James Cromwell, Ving Rhames, Jack Noseworthy

Devin Ratray

Genre : Sci-Fi, CyberPunk, Crime, Action

Certificate : Scenes, comments, or images may offend viewers’ sensibilities
Budget : 80 000 000 $ · Recipe : 122 275 343 $ · ratio : 153 %

Link : Allociné 2,7 /5 · IMDB 6,3 /10 · TMDB 60 % · SensCritique 5,3 /10 · Wiki · Bande Annonce

French Plot
Deux agents du FBI enquêtent sur le meurtre mystérieux d’un étudiant, qui semble lié à l’homme qui a contribué à mettre au point une invention qui s’est imposée dans toute la société : les gens peuvent désormais acheter des versions robotisées d’eux-mêmes , des doubles sans défaut qui, commandés à distance, effectuent leurs tâches à leur place et leur permettent de vivre par procuration sans quitter le confort et la sécurité de leur domicile . Cette révolution technologique soulève beaucoup de questions, dont la première va vite devenir préoccupante : dans un monde d’apparences qui est réel, à qui peut-on faire confiance ?

D’après les personnages du comic book : The Surrogates créés par Robert Venditti et Brett Weldele

Bonus
A More Perfect You – The Science of Surrogates 21 mn – 207,0 Mib – 1920×1080 HEVC 10Bits – VOSTFR – c42218f0
4 Deleted Scenes 6 mn – 67,50 Mib – 1920×1080 HEVC 10Bits – VOSTFR – 4b8ccab9
Clip – I Will Not Wow – Breaking Benjamin 3 mn – 67,30 Mib – 1920×1080 HEVC 10Bits – MUSIQUE – a2e7a2e9
Bluray Opening 1 mn – 14,20 Mib – 1920×1080 HEVC 10Bits – MUSIQUE – 990a7d21
Bluray Opening 1 mn – 14,60 Mib – 1920×1080 HEVC 10Bits – VO – 990a7d21
Bluray Looping 50 s – 11,00 Mib – 1920×1080 HEVC 10Bits – MUSIQUE – 101a3897
Bluray Looping 50 s – 11,20 Mib – 1920×1080 HEVC 10Bits – VO – 101a3897
7 bonus, total 392,8 Mib 34 mn


If you enjoy and wish to support, please stay in seeding

Technical Details
¯¯¯¯¯¯¯¯¯¯¯¯¯¯¯¯¯¯¯¯¯¯¯¯¯¯¯¯¯¯¯¯¯¯¯¯¯¯¯¯¯¯¯¯¯¯¯¯¯¯¯¯¯¯¯¯¯¯¯¯¯¯¯¯¯¯¯¯¯¯¯¯¯¯¯¯¯¯¯¯¯¯¯¯¯¯¯¯¯¯¯¯¯¯¯¯¯¯¯¯
Media
Matroska 4,08 Gio 1 h28 mn 6589 Kbps, Total 4,46 Gio 2 h02 mn
Video
HEVC/H265 1920 x800 @23.976 [email protected]@Main 10 bits 5074 Kbps VerySlow
Audio
True French 5.1 EAC3 448 Kbps 48KHz 16bits

Quebec French 5.1 EAC3 448 Kbps 48KHz 16bits

English (OV) 5.1 EAC3 448 Kbps 48KHz 16bits

English Commentary by Jonathan Mostow 2.0 EAC3 128 Kbps 48KHz 16bits

Subtitles
True French forced SRT
True French full SRT
True French forced PGS
True French full PGS
True French Commentary by Jonathan Mostow PGS
English full PGS
English full SDH PGS
Chapters
International, True French, English

Screenshot

Origin
Bluray : Video AVC 1080p 26214 Kbps, VFF 5.1 DTS 1509 Kbps, VFQ 5.1 AC3 640 Kbps, ENG 5.1 DTS-HDMA 3705 Kbps

NFO
¯¯¯¯¯¯¯¯¯¯¯¯¯¯¯¯¯¯¯¯¯¯¯¯¯¯¯¯¯¯¯¯¯¯¯¯¯¯¯¯¯¯¯¯¯¯¯¯¯¯¯¯¯¯¯¯¯¯¯¯¯¯¯¯¯¯¯¯¯¯¯¯¯¯¯¯¯¯¯¯¯¯¯¯¯¯¯¯¯¯¯¯¯¯¯¯¯¯¯¯

General
Complete name : Surrogates 2009 BR EAC3 VFF VFQ ENG 1080p x265 10Bits T0M.mkv

Format : Matroska
Format version : Version 4

File size : 4.08 GiB
Duration : 1 h 28 min

Overall bit rate : 6 589 kb/s

Movie name : Clones (Surrogates) 2009 de Jonathan Mostow avec Bruce Willis, Radha Mitchell, Rosamund Pike, Boris Kodjoe, James Francis Ginty, James Cromwell, Ving Rhames, Jack Noseworthy, Devin Ratray. (allocine=127136,imdb=tt0986263) T0M
Encoded date : UTC 2019-08-28 20:12:56

Writing application : mkvmerge v35.0.0 (‘All The Love In The World’) 64-bit

Writing library : libebml v1.3.9 + libmatroska v1.5.2

Cover : Yes

Attachments : Cover.jpg / Cover2.jpg / Cover3.jpg / Cover4.jpg

Video
ID : 1

Format : HEVC
Format/Info : High Efficiency Video Coding

Format profile : Main [email protected]@Main

Codec ID : V_MPEGH/ISO/HEVC

Duration : 1 h 28 min

Bit rate : 5 074 kb/s

Width : 1 920 pixels

Height : 800 pixels

Display aspect ratio : 2.40:1

Frame rate mode : Constant

Frame rate : 23.976 (24000/1001) FPS

Color space : YUV

Chroma subsampling : 4:2:0

Bit depth : 10 bits

Bits/(Pixel*Frame) : 0.138

Stream size : 3.14 GiB (77%)

Title : Video HEVC 1920×800 @23.976 x265 [email protected]@Main 10bits Q19.5 veryslow 1410mn
Writing library : x265 1.9:[Windows][GCC 4.9.2][64 bit] 10bit

Encoding settings : wpp / ctu=64 / min-cu-size=8 / max-tu-size=32 / tu-intra-depth=3 / tu-inter-depth=3 / me=3 / subme=4 / merange=57 / rect / amp / max-merge=4 / temporal-mvp / no-early-skip / rdpenalty=0 / no-tskip / no-tskip-fast / strong-intra-smoothing / no-lossless / no-cu-lossless / no-constrained-intra / no-fast-intra / open-gop / no-temporal-layers / interlace=0 / keyint=240 / min-keyint=24 / scenecut=40 / rc-lookahead=40 / lookahead-slices=0 / bframes=8 / bframe-bias=0 / b-adapt=2 / ref=5 / limit-refs=1 / limit-modes / weightp / weightb / aq-mode=1 / qg-size=32 / aq-strength=1.00 / cbqpoffs=0 / crqpoffs=0 / rd=6 / psy-rd=2.00 / rdoq-level=2 / psy-rdoq=1.00 / signhide / deblock / sao / no-sao-non-deblock / b-pyramid / cutree / no-intra-refresh / rc=crf / crf=19.5 / qcomp=0.60 / qpmin=0 / qpmax=51 / qpstep=4 / ipratio=1.40 / pbratio=1.30

Default : Yes

Forced : No

Color range : Limited

Color primaries : BT.709

Transfer characteristics : BT.709

Matrix coefficients : BT.709

Audio #1
ID : 2

Format : E-AC-3
Format/Info : Enhanced AC-3

Commercial name : Dolby Digital Plus

Codec ID : A_EAC3

Duration : 1 h 28 min

Bit rate mode : Constant

Bit rate : 448 kb/s

Channel(s) : 6 channels

Channel layout : L R C LFE Ls Rs

Sampling rate : 48.0 kHz

Frame rate : 31.250 FPS (1536 SPF)

Compression mode : Lossy

Delay relative to video : -83 ms

Stream size : 284 MiB (7%)

Title : Français 5.1 EAC3 448kbps 48khz 16bits
Language : French
Service kind : Complete Main

Default : Yes

Forced : No

Audio #2
ID : 3

Format : E-AC-3
Format/Info : Enhanced AC-3

Commercial name : Dolby Digital Plus

Codec ID : A_EAC3

Duration : 1 h 28 min

Bit rate mode : Constant

Bit rate : 448 kb/s

Channel(s) : 6 channels

Channel layout : L R C LFE Ls Rs

Sampling rate : 48.0 kHz

Frame rate : 31.250 FPS (1536 SPF)

Compression mode : Lossy

Delay relative to video : -83 ms

Stream size : 284 MiB (7%)

Title : Québécois 5.1 EAC3 448kbps 48khz 16bits
Language : French
Service kind : Complete Main

Default : No

Forced : No

Audio #3
ID : 4

Format : E-AC-3
Format/Info : Enhanced AC-3

Commercial name : Dolby Digital Plus

Codec ID : A_EAC3

Duration : 1 h 28 min

Bit rate mode : Constant

Bit rate : 448 kb/s

Channel(s) : 6 channels

Channel layout : L R C LFE Ls Rs

Sampling rate : 48.0 kHz

Frame rate : 31.250 FPS (1536 SPF)

Compression mode : Lossy

Delay relative to video : -83 ms

Stream size : 284 MiB (7%)

Title : English 5.1 EAC3 448kbps 48khz 16bits
Language : English
Service kind : Complete Main

Default : No

Forced : No

Audio #4
ID : 5

Format : E-AC-3
Format/Info : Enhanced AC-3

Commercial name : Dolby Digital Plus

Codec ID : A_EAC3

Duration : 1 h 28 min

Bit rate mode : Constant

Bit rate : 128 kb/s

Channel(s) : 2 channels

Channel layout : L R

Sampling rate : 48.0 kHz

Frame rate : 31.250 FPS (1536 SPF)

Compression mode : Lossy

Delay relative to video : -83 ms

Stream size : 81.1 MiB (2%)

Title : English comment by Jonathan Mostow 2.0 EAC3 128kbps 48khz 16bits
Language : English
Service kind : Complete Main

Default : No

Forced : No

Text #1
ID : 6

Format : UTF-8
Codec ID : S_TEXT/UTF8

Codec ID/Info : UTF-8 Plain Text

Duration : 1 h 28 min

Bit rate : 2 b/s

Count of elements : 60

Stream size : 1.62 KiB (0%)

Title : Français forcé (Passages)
Language : French
Default : Yes

Forced : Yes

Text #2
ID : 7

Format : UTF-8
Codec ID : S_TEXT/UTF8

Codec ID/Info : UTF-8 Plain Text

Duration : 1 h 28 min

Bit rate : 40 b/s

Count of elements : 736

Stream size : 26.3 KiB (0%)

Title : Français complet (Tous le film)
Language : French
Default : No

Forced : No

Text #3
ID : 8

Format : PGS
Muxing mode : zlib

Codec ID : S_HDMV/PGS

Codec ID/Info : Picture based subtitle format used on BDs/HD-DVDs

Duration : 53 min 51 s

Bit rate : 530 b/s

Count of elements : 31

Stream size : 209 KiB (0%)

Title : Français forcé (Passages) PGS
Language : French
Default : No

Forced : Yes

Text #4
ID : 9

Format : PGS
Muxing mode : zlib

Codec ID : S_HDMV/PGS

Codec ID/Info : Picture based subtitle format used on BDs/HD-DVDs

Duration : 1 h 23 min

Bit rate : 21.5 kb/s

Count of elements : 1437

Stream size : 12.8 MiB (0%)

Title : Français complet (Tous le film) PGS
Language : French
Default : No

Forced : No

Text #5
ID : 10

Format : PGS
Muxing mode : zlib

Codec ID : S_HDMV/PGS

Codec ID/Info : Picture based subtitle format used on BDs/HD-DVDs

Duration : 1 h 28 min

Bit rate : 53.1 kb/s

Count of elements : 2799

Stream size : 33.5 MiB (1%)

Title : Français commentaire de Jonathan Mostow PGS
Language : French
Default : No

Forced : No

Text #6
ID : 11

Format : PGS
Muxing mode : zlib

Codec ID : S_HDMV/PGS

Codec ID/Info : Picture based subtitle format used on BDs/HD-DVDs

Duration : 1 h 23 min

Bit rate : 25.6 kb/s

Count of elements : 1489

Stream size : 15.3 MiB (0%)

Title : English full (All the movie) PGS
Language : English
Default : No

Forced : No

Text #7
ID : 12

Format : PGS
Muxing mode : zlib

Codec ID : S_HDMV/PGS

Codec ID/Info : Picture based subtitle format used on BDs/HD-DVDs

Duration : 1 h 24 min

Bit rate : 28.5 kb/s

Count of elements : 1744

Stream size : 17.3 MiB (0%)

Title : English full SDH PGS
Language : English
Default : No

Forced : No

Menu
00:00:00.000 : :01 – 00:00:00 – fr:L’origines des Clones – en:Surrogate Origins

00:03:45.266 : :02 – 00:03:45 – fr:L’Opéra – en:A Night at the Opera

00:08:34.055 : :03 – 00:08:34 – fr:Sombre passé – en:Dark Past

00:14:45.885 : :04 – 00:14:45 – fr:Homicide – en:Homicide

00:20:36.777 : :05 – 00:20:36 – fr:Optiques manquantes – en:Missing Optics

00:24:47.903 : :06 – 00:24:47 – fr:Zone de guerre virtuelle – en:Virtual War Zone

00:28:58.778 : :07 – 00:28:58 – fr:Poursuite – en:In Pursuit

00:35:30.586 : :08 – 00:35:30 – fr:Chanceux d’être en vie – en:Lucky to Be Alive

00:40:10.449 : :09 – 00:40:10 – fr:Seulement humain – en:Humans Only

00:46:11.435 : :10 – 00:46:11 – fr:Rencontre avec le prophète – en:Meeting the Prophet

00:49:48.026 : :11 – 00:49:48 – fr:Perdre contact – en:Losing Touch

00:54:08.286 : :12 – 00:54:08 – fr:Opérateur distant – en:Remote Operator

01:00:37.759 : :13 – 01:00:37 – fr:La prophétie – en:The Prophecy

01:08:27.895 : :14 – 01:08:27 – fr:Vivre avec des regrets – en:Living with Regrets

01:11:43.007 : :15 – 01:11:43 – fr:Transmission Terminé – en:Transmit Complete

01:19:42.778 : :16 – 01:19:42 – fr:Un nouveau départ – en:A New Beginning

01:23:59.980 : :17 – 01:23:59 – fr:Générique – en:End Credits

Surrogates 2009 Bonus BR EAC3Download Torrent Magnet

#Surrogates #Bonus #EAC3