Supernova 2000 BR EAC3 VFF EN Full Torrent Magnet Download

Download Torrent Supernova 2000 BR EAC3 VFF EN Movie Full in HD Result. Movie Supernova 2000 BR EAC3 VFF EN Torrent Download full. Movie Supernova 2000 BR EAC3 VFF EN torrent Magnet Download Full. Supernova 2000 BR EAC3 VFF EN Full Movie Torrent Download And Magnet Download For your PC And Mobiles. Latest Movie Supernova 2000 BR EAC3 VFF EN Download Link In Bottom.

Torrent And Magnet Links Below

______________________________________________________________________________________________________________
Supernova 2000
Bluray · 1080p x265 10bits · DD+ 5.1 VFF ENG
¯¯¯¯¯¯¯¯¯¯¯¯¯¯¯¯¯¯¯¯¯¯¯¯¯¯¯¯¯¯¯¯¯¯¯¯¯¯¯¯¯¯¯¯¯¯¯¯¯¯¯¯¯¯¯¯¯¯¯¯¯¯¯¯¯¯¯¯¯¯¯¯¯¯¯¯¯¯¯¯

Year : 2000

Country : United States, Swiss

Original, French and English Title : Supernova

Director : Thomas Lee
Music from : David C. Williams

Acteurs : James Spader, Angela Bassett, Robert Forster, Lou Diamond Phillips, Peter Facinelli, Robin Tunney, Wilson Cruz

Genre : Sci-Fi, Thriller, Fantasy

Certificate : All public
Budget : 60 000 000 $ · Recipe : 14 828 081 $ · ratio : 25 %

Link : Allociné 1,9 /5 · IMDB 4,8 /10 · TMDB 49 % · SensCritique 4,3 /10 · Wiki · Bande Annonce

French Plot
Au XXIIe siècle , le vaisseau Nightingale 229 traverse le cosmos. À son bord, le capitaine A. J. Marley , le copilote Nick Vanzant , le docteur Kaela Evers et l’informaticien Benji Sotomejor . Ayant reçu un signal de détresse, ils changent de trajectoire et se retrouvent au milieu d’un orage magnétique provoqué par une étoile sur le point d’exploser. La survie s’organise rapidement, car le vaisseau doit repartir avant que l’étoile ne se transforme en supernova .


If you enjoy and wish to support, please stay in seeding

Technical Details
¯¯¯¯¯¯¯¯¯¯¯¯¯¯¯¯¯¯¯¯¯¯¯¯¯¯¯¯¯¯¯¯¯¯¯¯¯¯¯¯¯¯¯¯¯¯¯¯¯¯¯¯¯¯¯¯¯¯¯¯¯¯¯¯¯¯¯¯¯¯¯¯¯¯¯¯¯¯¯¯¯¯¯¯¯¯¯¯¯¯¯¯¯¯¯¯¯¯¯¯
Media
Matroska 3,99 Gio 1 h30 mn 6299 Kbps

Video
HEVC/H265 1920 x810 @23.976 [email protected]@Main 10 bits 5378 Kbps VerySlow
Audio
True French 5.1 EAC3 448 Kbps 48KHz 16bits

English (OV) 5.1 EAC3 448 Kbps 48KHz 16bits

Subtitles
True French forced SRT
True French full SRT
True French full SUB
English full PGS
Chapters
International, True French

Screenshot

Origin
Bluray : Video AVC 1080p 37069 Kbps, VFF 5.1 AC3 640 Kbps, Anglais 5.1 DTS-HDMA 3840 Kbps

NFO
¯¯¯¯¯¯¯¯¯¯¯¯¯¯¯¯¯¯¯¯¯¯¯¯¯¯¯¯¯¯¯¯¯¯¯¯¯¯¯¯¯¯¯¯¯¯¯¯¯¯¯¯¯¯¯¯¯¯¯¯¯¯¯¯¯¯¯¯¯¯¯¯¯¯¯¯¯¯¯¯¯¯¯¯¯¯¯¯¯¯¯¯¯¯¯¯¯¯¯¯

General
Format : Matroska
Format version : Version 4 / Version 2

File size : 3.99 GiB
Duration : 1 h 30 min

Overall bit rate : 6 299 kb/s

Movie name : Supernova de Thomas Lee avec James Spader, Angela Bassett, Robert Forster, Lou Diamond Phillips, Peter Facinelli, Robin Tunney, Wilson Cruz. Tout public (allocine=25617,imdb=tt0134983) T0M
Encoded date : UTC 2018-01-14 14:05:41

Writing application : mkvmerge v8.0.0 (‘Til The Day That I Die’) 64bit

Writing library : libebml v1.3.1 + libmatroska v1.4.2

Cover : Yes

Attachments : Cover.jpg / Cover2.jpg / Cover3.jpg / Bluray.jpg

Video
ID : 1

Format : HEVC
Format/Info : High Efficiency Video Coding

Format profile : Main [email protected]@Main

Codec ID : V_MPEGH/ISO/HEVC

Duration : 1 h 30 min

Bit rate : 5 378 kb/s

Width : 1 920 pixels

Height : 810 pixels

Display aspect ratio : 2.40:1

Frame rate mode : Constant

Frame rate : 23.976 (24000/1001) FPS

Color space : YUV

Chroma subsampling : 4:2:0

Bit depth : 10 bits

Bits/(Pixel*Frame) : 0.144

Stream size : 3.41 GiB (85%)

Title : Video HEVC 1920×810 @23.976 x265 [email protected]@Main 10bits veryslow 1779mn
Writing library : x265 1.9:[Windows][GCC 4.9.2][64 bit] 10bit

Encoding settings : wpp / ctu=64 / min-cu-size=8 / max-tu-size=32 / tu-intra-depth=3 / tu-inter-depth=3 / me=3 / subme=4 / merange=57 / rect / amp / max-merge=4 / temporal-mvp / no-early-skip / rdpenalty=0 / no-tskip / no-tskip-fast / strong-intra-smoothing / no-lossless / no-cu-lossless / no-constrained-intra / no-fast-intra / open-gop / no-temporal-layers / interlace=0 / keyint=240 / min-keyint=24 / scenecut=40 / rc-lookahead=40 / lookahead-slices=0 / bframes=8 / bframe-bias=0 / b-adapt=2 / ref=5 / limit-refs=1 / limit-modes / weightp / weightb / aq-mode=1 / qg-size=32 / aq-strength=1.00 / cbqpoffs=0 / crqpoffs=0 / rd=6 / psy-rd=2.00 / rdoq-level=2 / psy-rdoq=1.00 / signhide / deblock / sao / no-sao-non-deblock / b-pyramid / cutree / no-intra-refresh / rc=crf / crf=19.3 / qcomp=0.60 / qpmin=0 / qpmax=51 / qpstep=4 / ipratio=1.40 / pbratio=1.30

Default : Yes

Forced : No

Color range : Limited

Color primaries : BT.709

Transfer characteristics : BT.709

Matrix coefficients : BT.709

Audio #1
ID : 2

Format : E-AC-3
Format/Info : Enhanced Audio Coding 3

Codec ID : A_EAC3

Duration : 1 h 30 min

Bit rate mode : Constant

Bit rate : 448 kb/s

Channel(s) : 6 channels

Channel positions : Front: L C R, Side: L R, LFE

Sampling rate : 48.0 kHz

Frame rate : 187.500 FPS (256 SPF)

Compression mode : Lossy

Delay relative to video : -83 ms

Stream size : 290 MiB (7%)

Title : Français 5.1 EAC3 448kbps 48khz 16bits
Language : French
Service kind : Complete Main

Default : Yes

Forced : No

Audio #2
ID : 3

Format : E-AC-3
Format/Info : Enhanced Audio Coding 3

Codec ID : A_EAC3

Duration : 1 h 30 min

Bit rate mode : Constant

Bit rate : 448 kb/s

Channel(s) : 6 channels

Channel positions : Front: L C R, Side: L R, LFE

Sampling rate : 48.0 kHz

Frame rate : 187.500 FPS (256 SPF)

Compression mode : Lossy

Delay relative to video : -83 ms

Stream size : 290 MiB (7%)

Title : English 5.1 EAC3 448kbps 48khz 16bits
Language : English
Service kind : Complete Main

Default : No

Forced : No

Text #1
ID : 4

Format : UTF-8
Codec ID : S_TEXT/UTF8

Codec ID/Info : UTF-8 Plain Text

Duration : 1 h 30 min

Bit rate : 0 b/s

Count of elements : 5

Stream size : 283 Bytes (0%)

Title : Français forcé (Passages)
Language : French
Default : Yes

Forced : Yes

Text #2
ID : 5

Format : UTF-8
Codec ID : S_TEXT/UTF8

Codec ID/Info : UTF-8 Plain Text

Duration : 1 h 30 min

Bit rate : 55 b/s

Count of elements : 870

Stream size : 37.0 KiB (0%)

Title : Français complet (Tous le film)
Language : French
Default : No

Forced : No

Text #3
ID : 6

Format : VobSub
Muxing mode : zlib

Codec ID : S_VOBSUB

Codec ID/Info : Picture based subtitle format used on DVDs

Duration : 1 h 29 min

Bit rate : 1 622 b/s

Count of elements : 869

Stream size : 1.04 MiB (0%)

Title : Français complet (Tous le film) PGS
Language : French
Default : No

Forced : No

Text #4
ID : 7

Format : PGS
Muxing mode : zlib

Codec ID : S_HDMV/PGS

Codec ID/Info : Picture based subtitle format used on BDs/HD-DVDs

Duration : 1 h 22 min

Bit rate : 21.3 kb/s

Count of elements : 2130

Stream size : 12.5 MiB (0%)

Title : English full (All the movie) PGS
Language : English
Default : No

Forced : No

Menu
00:00:00.000 : :01 – 00:00:00 – fr:Test imprévu

00:03:04.393 : :02 – 00:03:04 – fr:Les pilules du bonheur

00:05:07.391 : :03 – 00:05:07 – fr:Hazen

00:07:37.624 : :04 – 00:07:37 – fr:Signal de détresse

00:11:41.076 : :05 – 00:11:41 – fr:Bond dimensionnel

00:14:27.826 : :06 – 00:14:27 – fr:Arrivée cahoteuse

00:20:08.458 : :07 – 00:20:08 – fr:Dans un esprit amical

00:23:01.757 : :08 – 00:23:01 – fr:Vaisseau en approche

00:27:45.958 : :09 – 00:27:45 – fr:En bonne santé ?

00:30:25.868 : :10 – 00:30:25 – fr:L’héritage de Karl

00:34:57.472 : :11 – 00:34:57 – fr:Découverte rayonnante

00:39:33.498 : :12 – 00:39:33 – fr:Les options

00:42:57.077 : :13 – 00:42:57 – fr:Le départ de Nick

00:45:05.789 : :14 – 00:45:05 – fr:Étrange compréhension

00:48:56.770 : :15 – 00:48:56 – fr:Navigation

00:50:46.296 : :16 – 00:50:46 – fr:Pouvoir étonnant

00:55:26.743 : :17 – 00:55:26 – fr:Échoué !

00:59:30.571 : :18 – 00:59:30 – fr: L’invité monstrueux

01:03:39.486 : :19 – 01:03:39 – fr:Ben fait de son mieux

01:08:44.917 : :20 – 01:08:44 – fr:Le plan de Karl

01:13:03.342 : :21 – 01:13:03 – fr:Bas les pattes

01:16:37.639 : :22 – 01:16:37 – fr:Sortie enflammée

01:19:27.184 : :23 – 01:19:27 – fr:Bon dangereux

01:23:27.216 : :24 – 01:23:27 – fr:Générique

Supernova 2000 BR EAC3 VFF ENDownload Torrent Magnet

#Supernova #EAC3 #VFF