Superman.and.Lois.S01E09.WEB- Full Torrent Magnet Download

Download Torrent Superman.and.Lois.S01E09.WEB- Movie Full in HD Result. Movie Superman.and.Lois.S01E09.WEB- Torrent Download full. Movie Superman.and.Lois.S01E09.WEB- torrent Magnet Download Full. Superman.and.Lois.S01E09.WEB- Full Movie Torrent Download And Magnet Download For your PC And Mobiles. Latest Movie Superman.and.Lois.S01E09.WEB- Download Link In Bottom.

Torrent And Magnet Links Below

Superman.and.Lois.S01E09.WEB-DL.XviD.B4ND1T69

Creators: Greg Berlanti, Todd Helbing

Stars: Tyler Hoechlin, Elizabeth Tulloch, Alex Garfin

Plot/Story:

Loyal Subjekts

Lois, Chrissy and Clark team up to piece together the significance of Smallville to Morgan Edge.

General

Complete name : Superman.and.Lois.S01E09.WEB-DL.XviD.B4ND1T69.avi

Format : AVI

Format/Info : Audio Video Interleave

File size : 234 MiB

Duration : 43 min 36 s

Overall bit rate : 750 kb/s

Subtitles : Yes…Included(HI)

Video

ID : 0

Format : MPEG-4 Visual

Format profile : Advanced [email protected]
Format settings, BVOP : 2

Format settings, QPel : No

Format settings, GMC : No warppoints

Format settings, Matrix : Default (H.263)

Codec ID : XVID

Codec ID/Hint : XviD

Duration : 43 min 36 s

Bit rate : 609 kb/s

Width : 640 pixels

Height : 288 pixels

Display aspect ratio : 2.222

Frame rate : 23.976 (24000/1001) FPS

Color space : YUV

Chroma subsampling : 4:2:0

Bit depth : 8 bits

Scan type : Progressive

Compression mode : Lossy

Bits/(Pixel*Frame) : 0.138

Stream size : 190 MiB (81%)

Writing library : XviD 64

Audio

ID : 1

Format : MPEG Audio

Format version : Version 1

Format profile : Layer 3

Codec ID : 55

Codec ID/Hint : MP3

Duration : 43 min 36 s

Bit rate mode : Constant

Bit rate : 128 kb/s

Channel(s) : 2 channels

Sampling rate : 48.0 kHz

Compression mode : Lossy

Stream size : 39.9 MiB (17%)

Alignment : Aligned on interleaves

Interleave, duration : 24 ms (0.58 video frame)

Screenshots:






Please Seed For As Long As Possible

Or At Least 1:1 Ratio…Thanks

Enjoy Peeps

Superman.and.Lois.S01E09.WEB-Download Torrent Magnet

#SupermanandLoisS01E09WEB