Super.8.2011.BRRip.XviD.B4ND1 Full Torrent Magnet Download

Download Torrent Super.8.2011.BRRip.XviD.B4ND1 Movie Full in HD Result. Movie Super.8.2011.BRRip.XviD.B4ND1 Torrent Download full. Movie Super.8.2011.BRRip.XviD.B4ND1 torrent Magnet Download Full. Super.8.2011.BRRip.XviD.B4ND1 Full Movie Torrent Download And Magnet Download For your PC And Mobiles. Latest Movie Super.8.2011.BRRip.XviD.B4ND1 Download Link In Bottom.

Torrent And Magnet Links Below

Super.8.2011.BRRip.XviD.B4ND1T69

Director: J.J. Abrams

Writer: J.J. Abrams

Stars: Elle Fanning, AJ Michalka, Kyle Chandler

Plot/Story:

During the summer of 1979, a group of friends witness a train crash and investigate subsequent unexplained events in their small town.

General

Complete name : Super.8.2011.BRRip.XviD.B4ND1T69.avi

Format : AVI

Format/Info : Audio Video Interleave

File size : 1.17 GiB

Duration : 1 h 51 min

Overall bit rate : 1 503 kb/s

Subtitles : Yes…Included(HI)

Video

ID : 0

Format : MPEG-4 Visual

Format profile : Advanced [email protected]
Format settings, BVOP : 2

Format settings, QPel : No

Format settings, GMC : No warppoints

Format settings, Matrix : Default (H.263)

Codec ID : XVID

Codec ID/Hint : XviD

Duration : 1 h 51 min

Bit rate : 1 362 kb/s

Width : 720 pixels

Height : 304 pixels

Display aspect ratio : 2.35:1

Frame rate : 23.976 (24000/1001) FPS

Color space : YUV

Chroma subsampling : 4:2:0

Bit depth : 8 bits

Scan type : Progressive

Compression mode : Lossy

Bits/(Pixel*Frame) : 0.259

Stream size : 1.06 GiB (91%)

Writing library : XviD 64

Audio

ID : 1

Format : MPEG Audio

Format version : Version 1

Format profile : Layer 3

Codec ID : 55

Codec ID/Hint : MP3

Duration : 1 h 51 min

Bit rate mode : Constant

Bit rate : 128 kb/s

Channel(s) : 2 channels

Sampling rate : 48.0 kHz

Compression mode : Lossy

Stream size : 102 MiB (9%)

Alignment : Aligned on interleaves

Interleave, duration : 24 ms (0.58 video frame)

Screenshots:









Please Seed For As Long As Possible

Or At Least 1:1 Ratio…Thanks

Enjoy Peeps

Super.8.2011.BRRip.XviD.B4ND1Download Torrent Magnet

#Super82011BRRipXviDB4ND1