Suffragette.2015.iTA.ENG.AC3. Full Torrent Magnet Download

Download Torrent Suffragette.2015.iTA.ENG.AC3. Movie Full in HD Result. Movie Suffragette.2015.iTA.ENG.AC3. Torrent Download full. Movie Suffragette.2015.iTA.ENG.AC3. torrent Magnet Download Full. Suffragette.2015.iTA.ENG.AC3. Full Movie Torrent Download And Magnet Download For your PC And Mobiles. Latest Movie Suffragette.2015.iTA.ENG.AC3. Download Link In Bottom.

Torrent And Magnet Links Below


Suffragette


Titolo originale: Suffragette

Genere: Drammatico, Storico

Anno: 2015

Regia: Sarah Gavron

Attori: Carey Mulligan, Helena Bonham Carter, Meryl Streep, Ben Whishaw, Brendan Gleeson, Romola Garai, Anne-Marie Duff, Samuel West, Geoff Bell, Morgan Watkins, Natalie Press

Paese: Gran Bretagna

Durata: 106 min

Distribuzione: BIM

Sceneggiatura: Abi Morgan

Fotografia: Eduard Grau

Montaggio: Barney Pilling

Musiche: Alexandre Desplat

Produzione: Ruby Films, Pathé, Film4


Suffragette è un film del 2015 diretto da Sarah Gravon. Il film è ambientato a Londra, nel 1912, e segue la storia di Maud Watts (Carey Mulligan), giovane donna dell’East End londinese, che da sempre è costretta a lavorare in una lavanderia per un misero compenso, sopportando le angherie del suo squallido datore di lavoro. Maud rimane affascinata dalla forza delle suffragette che sfilano per le vie di Londra e protestano per ottenere il diritto al voto e nasce in lei il desiderio di unirsi alla lotta. Grazie alla persuasiva collega Violet (Anne-Marie Duff), Maud viene introdotta tra i membri del movimento e fa la conoscenza dei sostenitori della causa, tra cui i coniugi Edith (Helena Bonham Carter) e Hugh Elyn e l’attivista di alta borghesia, Alice Haughton (Romola Garai).

Quest’ultima invita le donne a occupare il Parlamento e persuade Maud a esporre un resoconto della propria condizione lavorativa davanti al rappresentante della Camera dei Comuni, David Lloyd George (Adrian Schiller). Quando, tuttavia, i politici rifiutano nuovamente la proposta del suffragio universale, le donne protestano violentemente e, nel delirio della folla, Maud viene arrestata. Dopo aver scontato la sua pena, la donna partecipa al raduno della carismatica Emmeline Punkhurst (Meryl Streep), mentre l’ispettore Steed (Brendan Gleeson) la osserva attentamente. La lotta di Maud sarà ostacolata dal bigotto marito Sonny (Ben Whishaw), che la costringerà a scegliere tra il suo ruolo di madre e moglie e il sogno di un futuro basato sull’eguaglianza. Nonostante le avversità e le atroci torture, psicologiche e fisiche, Maud scoprirà di possedere un’incredibile forza d’animo e nessuno potrà contrastare le donne che marciano su Londra per far valere i loro ideali.




General

Unique ID : 246948935756837751778042210394886871282 (0xB9C8A29012735498A2C5A1587B5798F2)

Complete name : Suffragette.2015.iTA.ENG.AC3.SUB.iTA.ENG.BluRay.1080p.x264.jeddak-MIRCrew.mkv

Format : Matroska

Format version : Version 2

File size : 2.51 GiB

Duration : 1 h 46 min

Overall bit rate : 3 379 kb/s

Movie name : Suffragette.2015.iTA.ENG.AC3.SUB.iTA.ENG.BluRay.1080p.x264.jeddak-MIRCrew

Encoded date : UTC 2021-05-27 07:45:01

Writing application : mkvmerge v5.6.0 (‘Kenya Kane’) built on May 27 2012 16:44:04

Writing library : libebml v1.2.3 + libmatroska v1.3.0 / Lavf58.29.100

Video

ID : 1

Format : AVC

Format/Info : Advanced Video Codec

Format profile : [email protected]
Format settings : CABAC / 4 Ref Frames

Format settings, CABAC : Yes

Format settings, Reference : 4 frames

Codec ID : V_MPEG4/ISO/AVC

Duration : 1 h 46 min

Bit rate : 2 500 kb/s

Width : 1 920 pixels

Height : 804 pixels

Display aspect ratio : 2.40:1

Frame rate mode : Constant

Frame rate : 23.976 (24000/1001) FPS

Color space : YUV

Chroma subsampling : 4:2:0

Bit depth : 8 bits

Scan type : Progressive

Bits/(Pixel*Frame) : 0.068

Stream size : 1.80 GiB (71%)

Title : …::: jeddak MIRCrew :::…

Writing library : x264 core 148

Encoding settings : cabac=1 / ref=3 / deblock=1:-1:-1 / analyse=0x3:0x113 / me=hex / subme=7 / psy=1 / psy_rd=1.00:0.15 / mixed_ref=1 / me_range=16 / chroma_me=1 / trellis=1 / 8x8dct=1 / cqm=0 / deadzone=21,11 / fast_pskip=1 / chroma_qp_offset=-3 / threads=6 / lookahead_threads=1 / sliced_threads=0 / nr=0 / decimate=1 / interlaced=0 / bluray_compat=0 / constrained_intra=0 / bframes=3 / b_pyramid=2 / b_adapt=1 / b_bias=0 / direct=1 / weightb=1 / open_gop=0 / weightp=2 / keyint=240 / keyint_min=24 / scenecut=40 / intra_refresh=0 / rc_lookahead=40 / rc=abr / mbtree=1 / bitrate=2500 / ratetol=1.0 / qcomp=0.60 / qpmin=0 / qpmax=69 / qpstep=4 / vbv_maxrate=62500 / vbv_bufsize=78125 / nal_hrd=none / filler=0 / ip_ratio=1.40 / aq=1:1.00

Default : Yes

Forced : No

Color range : Limited

Color primaries : BT.709

Transfer characteristics : BT.709

Matrix coefficients : BT.709

Audio #1

ID : 2

Format : AC-3

Format/Info : Audio Coding 3

Commercial name : Dolby Digital

Codec ID : A_AC3

Duration : 1 h 46 min

Bit rate mode : Constant

Bit rate : 448 kb/s

Channel(s) : 6 channels

Channel layout : L R C LFE Ls Rs

Sampling rate : 48.0 kHz

Frame rate : 31.250 FPS (1536 SPF)

Compression mode : Lossy

Delay relative to video : -5 ms

Stream size : 341 MiB (13%)

Title : iTA AC3 5.1

Language : Italian

Service kind : Complete Main

Default : Yes

Forced : No

Duration_Source : General_Duration

Audio #2

ID : 3

Format : AC-3

Format/Info : Audio Coding 3

Commercial name : Dolby Digital

Codec ID : A_AC3

Duration : 1 h 46 min

Bit rate mode : Constant

Bit rate : 448 kb/s

Channel(s) : 6 channels

Channel layout : L R C LFE Ls Rs

Sampling rate : 48.0 kHz

Frame rate : 31.250 FPS (1536 SPF)

Compression mode : Lossy

Delay relative to video : -5 ms

Stream size : 341 MiB (13%)

Title : ENG AC3 5.1

Language : English

Service kind : Complete Main

Default : No

Forced : No

Text #1

ID : 4

Format : ASS

Codec ID : S_TEXT/ASS

Codec ID/Info : Advanced Sub Station Alpha

Duration : 1 h 40 min

Compression mode : Lossless

Title : iTA FORCED

Language : Italian

Default : Yes

Forced : Yes

Text #2

ID : 5

Format : ASS

Codec ID : S_TEXT/ASS

Codec ID/Info : Advanced Sub Station Alpha

Duration : 1 h 40 min

Compression mode : Lossless

Title : iTA REGULAR

Language : Italian

Default : No

Forced : No

Text #3

ID : 6

Format : ASS

Codec ID : S_TEXT/ASS

Codec ID/Info : Advanced Sub Station Alpha

Duration : 1 h 38 min

Compression mode : Lossless

Title : ENG NON UDENTI

Language : English

Default : No

Forced : No

Text #4

ID : 7

Format : PGS

Muxing mode : zlib

Codec ID : S_HDMV/PGS

Codec ID/Info : Picture based subtitle format used on BDs/HD-DVDs

Duration : 1 h 38 min

Title : ENG NON UDENTI

Language : English

Default : No

Forced : No

Menu

00:00:00.000 : :Capitolo 01

00:03:04.351 : :Capitolo 02

00:06:16.001 : :Capitolo 03

00:11:11.838 : :Capitolo 04

00:17:19.247 : :Capitolo 05

00:25:05.254 : :Capitolo 06

00:31:33.058 : :Capitolo 07

00:37:08.810 : :Capitolo 08

00:43:01.871 : :Capitolo 09

00:47:36.270 : :Capitolo 10

00:51:39.638 : :Capitolo 11

00:56:12.119 : :Capitolo 12

01:01:25.265 : :Capitolo 13

01:08:06.416 : :Capitolo 14

01:12:33.349 : :Capitolo 15

01:16:46.185 : :Capitolo 16

01:20:50.763 : :Capitolo 17

01:26:23.679 : :Capitolo 18

01:35:03.907 : :Capitolo 19

01:40:35.029 : :Capitolo 20

Suffragette.2015.iTA.ENG.AC3.Download Torrent Magnet

#Suffragette2015iTAENGAC3