Sudden Death 1995 x264 720p E Full Torrent Magnet Download

Download Torrent Sudden Death 1995 x264 720p E Movie Full in HD Result. Movie Sudden Death 1995 x264 720p E Torrent Download full. Movie Sudden Death 1995 x264 720p E torrent Magnet Download Full. Sudden Death 1995 x264 720p E Full Movie Torrent Download And Magnet Download For your PC And Mobiles. Latest Movie Sudden Death 1995 x264 720p E Download Link In Bottom.

Torrent And Magnet Links Below

Greets

Admin , Moderator , Noir, Ex0duS5150, theeshiznit, MisterQ, UserHEVC, miok, Silmarillion, Mr. Blue, MaDHeX and many more ;

Join Us On TeleGram

https://t.me/gopisahit

Sudden Death 1995 x264 720p Esub BluRay Dual Audio English Hindi THE GOPI SAHI

Format : Matroska

Format version : Version 4

File size : 861 MiB

Duration : 1 h 49 min

Overall bit rate : 1 095 kb/s

Movie name : Sudden Death 1995 GOPISAHI

Encoded date : UTC 2020-02-09 08:42:09

Video

ID : 1

Format : AVC

Format/Info : Advanced Video Codec

Format profile : [email protected]
Format settings : CABAC / 12 Ref Frames

Format settings, CABAC : Yes

Format settings, Reference fra : 12 frames

Codec ID : V_MPEG4/ISO/AVC

Duration : 1 h 49 min

Bit rate : 899 kb/s

Width : 1 280 pixels

Height : 544 pixels

Display aspect ratio : 2.35:1

Frame rate mode : Constant

Frame rate : 23.976 (24000/1001) FPS

Color space : YUV

Chroma subsampling : 4:2:0

Bit depth : 8 bits

Scan type : Progressive

Bits/(Pixel*Frame) : 0.054

Stream size : 707 MiB (82%)

Title : GOPISAHI

Writing library : x264 core 157 r2935 545de2f

Audio #1

ID : 2

Format : AAC LC

Format/Info : Advanced Audio Codec Low Complexity

Codec ID : A_AAC-2

Duration : 1 h 49 min

Bit rate : 96.0 kb/s

Channel(s) : 2 channels

Channel layout : L R

Sampling rate : 48.0 kHz

Frame rate : 46.875 FPS (1024 SPF)

Compression mode : Lossy

Delay relative to video : -21 ms

Stream size : 76.0 MiB (9%)

Title : GOPISAHI

Language : Hindi

Default : Yes

Forced : No

Audio #2

ID : 3

Format : AAC LC

Format/Info : Advanced Audio Codec Low Complexity

Codec ID : A_AAC-2

Duration : 1 h 49 min

Bit rate : 96.0 kb/s

Channel(s) : 2 channels

Channel layout : L R

Sampling rate : 48.0 kHz

Frame rate : 46.875 FPS (1024 SPF)

Compression mode : Lossy

Delay relative to video : -21 ms

Stream size : 75.9 MiB (9%)

Title : GOPISAHI

Language : English

Default : No

Forced : No

Text

ID : 4

Format : UTF-8

Codec ID : S_TEXT/UTF8

Codec ID/Info : UTF-8 Plain Text

Duration : 1 h 44 min

Bit rate : 57 b/s

Count of elements : 1373

Stream size : 44.2 KiB (0%)

Title : GOPISAHI

Language : English

Default : No

Forced : No

Sudden Death 1995 x264 720p EDownload Torrent Magnet

#Sudden #Death #x264 #720p