Stray.2020.SUBBED.720p.BluRay Full Torrent Magnet Download

Download Torrent Stray.2020.SUBBED.720p.BluRay Movie Full in HD Result. Movie Stray.2020.SUBBED.720p.BluRay Torrent Download full. Movie Stray.2020.SUBBED.720p.BluRay torrent Magnet Download Full. Stray.2020.SUBBED.720p.BluRay Full Movie Torrent Download And Magnet Download For your PC And Mobiles. Latest Movie Stray.2020.SUBBED.720p.BluRay Download Link In Bottom.

Torrent And Magnet Links Below

Complete name : Stray.2020.SUBBED.720p.BluRay.x264-SCARE [TGx] [Thomas]stray.2020.subbed.720p.bluray.x264-scare.mkv

Format : Matroska

Format version : Version 4

File size : 4.35 GiB

Duration : 1 h 12 min

Overall bit rate : 8 601 kb/s

Encoded date : UTC 2021-05-05 21:29:21

Writing application : mkvmerge v52.0.0 (‘Secret For The Mad’) 64-bit

Writing library : libebml v1.4.1 + libmatroska v1.6.2

Video
ID : 1

Format : AVC

Format/Info : Advanced Video Codec

Format profile : [email protected]
Format settings : CABAC / 9 Ref Frames

Format settings, CABAC : Yes

Format settings, Reference : 9 frames

Codec ID : V_MPEG4/ISO/AVC

Duration : 1 h 12 min

Bit rate : 7 956 kb/s

Width : 1 280 pixels

Height : 692 pixels

Display aspect ratio : 1.85:1

Frame rate mode : Constant

Frame rate : 23.976 (24000/1001) FPS

Color space : YUV

Chroma subsampling : 4:2:0

Bit depth : 8 bits

Scan type : Progressive

Bits/(Pixel*Frame) : 0.375

Stream size : 4.03 GiB (92%)

Writing library : x264 core 163 r3059 b684ebe

Audio
ID : 2

Format : AC-3

Format/Info : Audio Coding 3

Commercial name : Dolby Digital

Codec ID : A_AC3

Duration : 1 h 12 min

Bit rate mode : Constant

Bit rate : 640 kb/s

Channel(s) : 6 channels

Channel layout : L R C LFE Ls Rs

Sampling rate : 48.0 kHz

Frame rate : 31.250 FPS (1536 SPF)

Compression mode : Lossy

Stream size : 332 MiB (7%)

Language : Turkish

Service kind : Complete Main

Default : Yes

Forced : No

Stray.2020.SUBBED.720p.BluRayDownload Torrent Magnet

#Stray2020SUBBED720pBluRay