Stowaway – Estraneo a bordo ( Full Torrent Magnet Download

Download Torrent Stowaway – Estraneo a bordo ( Movie Full in HD Result. Movie Stowaway – Estraneo a bordo ( Torrent Download full. Movie Stowaway – Estraneo a bordo ( torrent Magnet Download Full. Stowaway – Estraneo a bordo ( Full Movie Torrent Download And Magnet Download For your PC And Mobiles. Latest Movie Stowaway – Estraneo a bordo ( Download Link In Bottom.

Torrent And Magnet Links Below


NO FOUND ONLY ORIGINAL RELEASE

My release is always in double track audio italian and Original audio

for select it use VLC or dvd player home

not use wmp

Estraneo a bordo – Stowaway (2021)

Quality MIRCrew on HD 1080p da 2,7 gb

Titolo originale Stowaway

Lingua originale inglese

Paese di produzione Stati Uniti d’America, Germania

Anno 2021

Durata 116 min

Rapporto 2,35:1

Genere fantascienza, thriller, drammatico

Regia Joe Penna

Sceneggiatura Joe Penna, Ryan Morrison

Toni Collette: Marina Barnett

Anna Kendrick: Zoe Levenson

Daniel Dae Kim: David Kim

Shamier Anderson: Michael Adams

La missione MTS-42 della compagnia Hyperion è composta da un equipaggio di tre membri: la comandante Marina Barnett, la ricercatrice medica Zoe Levenson ed il biologo David Kim, il quale svolge un importante esperimento con delle alghe. La missione prevede il trasferimento verso Marte, un periodo di permanenza sul pianeta rosso e poi il ritorno, per un totale di due anni di viaggio

A three-person crew on a mission to Mars faces an impossible choice when an unplanned passenger jeopardizes the lives of everyone on board.

General

Complete name : Estraneo a bordo – Stowaway (2021) 1080p h264 Ac3 5.1 Ita Eng Sub Ita Eng – MIRCrewEstraneo a bordo – Stowaway (2021) 1080p h264 Ac3 5.1 Ita Eng Sub Ita Eng – MIRCrew.mkv

Format : Matroska

Format version : Version 2

File size : 2.77 GiB

Duration : 1h 56mn

Overall bit rate : 3 420 Kbps

Movie name : MIRCrew

Encoded date : UTC 2021-05-21 14:26:35

Writing application : mkvmerge v5.8.0 (‘No Sleep / Pillow’) built on Sep 2 2012 15:37:04

Writing library : Lavf54.63.100

COMMENT : MIRCrew

Video

ID : 1

Format : AVC

Format/Info : Advanced Video Codec

Format profile : [email protected]
Format settings, CABAC : Yes

Format settings, ReFrames : 2 frames

Codec ID : V_MPEG4/ISO/AVC

Duration : 1h 56mn

Bit rate : 2 456 Kbps

Nominal bit rate : 2 600 Kbps

Width : 1 920 pixels

Height : 816 pixels

Display aspect ratio : 2.35:1

Frame rate mode : Variable

Frame rate : 24.000 fps

Color space : YUV

Chroma subsampling : 4:2:0

Bit depth : 8 bits

Scan type : Progressive

Bits/(Pixel*Frame) : 0.065

Stream size : 1.99 GiB (72%)

Title : MIRCrew

Writing library : x264 core 130 r2273

Encoding settings : cabac=1 / ref=2 / deblock=1:-1:-1

Language : Italian

Default : Yes

Forced : No

DURATION : 01:56:02.584000000

Audio #1

ID : 2

Format : AC-3

Format/Info : Audio Coding 3

Mode extension : CM (complete main)

Codec ID : A_AC3

Duration : 1h 56mn

Bit rate mode : Constant

Bit rate : 448 Kbps

Channel(s) : 6 channels

Channel positions : Front: L C R, Side: L R, LFE

Sampling rate : 48.0 KHz

Bit depth : 16 bits

Compression mode : Lossy

Delay relative to video : -5ms

Stream size : 372 MiB (13%)

Title : Ita Ac3

Language : Italian

Default : Yes

Forced : No

DURATION : 01:56:02.656000000

Audio #2

ID : 3

Format : AC-3

Format/Info : Audio Coding 3

Mode extension : CM (complete main)

Codec ID : A_AC3

Duration : 1h 56mn

Bit rate mode : Constant

Bit rate : 448 Kbps

Channel(s) : 6 channels

Channel positions : Front: L C R, Side: L R, LFE

Sampling rate : 48.0 KHz

Bit depth : 16 bits

Compression mode : Lossy

Delay relative to video : -5ms

Stream size : 372 MiB (13%)

Title : Eng Ac3

Language : English

Default : No

Forced : No

DURATION : 01:56:02.624000000

Stowaway – Estraneo a bordo (Download Torrent Magnet

#Stowaway #Estraneo #bordo