Stowaway 2021 720p NF WEB-DL Full Torrent Magnet Download

Download Torrent Stowaway 2021 720p NF WEB-DL Movie Full in HD Result. Movie Stowaway 2021 720p NF WEB-DL Torrent Download full. Movie Stowaway 2021 720p NF WEB-DL torrent Magnet Download Full. Stowaway 2021 720p NF WEB-DL Full Movie Torrent Download And Magnet Download For your PC And Mobiles. Latest Movie Stowaway 2021 720p NF WEB-DL Download Link In Bottom.

Torrent And Magnet Links Below

Stowaway 2021 720p NF WEB-DL DUAL H265 HEVC AAC2.0 – SunGeorge

Quote:

Stowaway 2021 720p NF WEB-DL DUAL H265 HEVC AAC2.0 – SunGeorge




Code:

General

Complete name : Stowaway.2021.720p.NF.WEB-DL.DUAL.H264.HEVC.AAC2.0.mkv

Format : Matroska

Format version : Version 4

File size : 1.38 GiB

Duration : 1 h 57 min

Overall bit rate : 1 682 kb/s

Movie name : MovieAIO.us

Encoded date : UTC 2021-04-22 14:37:54

Writing application : mkvmerge v56.1.0 (‘My Friend’) 64-bit

Writing library : libebml v1.4.2 + libmatroska v1.6.4

Video

ID : 1

Format : HEVC

Format/Info : High Efficiency Video Coding

Format profile : [email protected]@Main

Codec ID : V_MPEGH/ISO/HEVC

Duration : 1 h 57 min

Bit rate : 1 169 kb/s

Width : 1 274 pixels

Height : 720 pixels

Display aspect ratio : 16:9

Frame rate mode : Variable

Frame rate : 24.000 FPS

Original frame rate : 25.000 FPS

Color space : YUV

Chroma subsampling : 4:2:0

Bit depth : 8 bits

Bits/(Pixel*Frame) : 0.053

Stream size : 979 MiB (70%)

Title : MovieAIO.us

Writing library : x265 3.4_RC1+3-18610b4f88bc:[Linux][GCC 9.3.0][64 bit] 8bit

Encoding settings : cpuid=1111039 / frame-threads=4 / wpp / no-pmode / no-pme / no-psnr / no-ssim / log-level=2 / input-csp=1 / input-res=1274×720 / interlace=0 / total-frames=0 / level-idc=0 / high-tier=1 / uhd-bd=0 / ref=3 / no-allow-non-conformance / no-repeat-headers / annexb / no-aud / no-hrd / info / hash=0 / no-temporal-layers / open-gop / min-keyint=25 / keyint=250 / gop-lookahead=0 / bframes=4 / b-adapt=2 / b-pyramid / bframe-bias=0 / rc-lookahead=20 / lookahead-slices=4 / scenecut=40 / hist-scenecut=0 / radl=0 / no-splice / no-intra-refresh / ctu=64 / min-cu-size=8 / no-rect / no-amp / max-tu-size=32 / tu-inter-depth=1 / tu-intra-depth=1 / limit-tu=0 / rdoq-level=0 / dynamic-rd=0.00 / no-ssim-rd / signhide / no-tskip / nr-intra=0 / nr-inter=0 / no-constrained-intra / strong-intra-smoothing / max-merge=3 / limit-refs=1 / no-limit-modes / me=1 / subme=2 / merange=57 / temporal-mvp / no-frame-dup / no-hme / weightp / no-weightb / no-analyze-src-pics / deblock=0:0 / sao / no-sao-non-deblock / rd=3 / selective-sao=4 / early-skip / rskip / no-fast-intra / no-tskip-fast / no-cu-lossless / b-intra / no-splitrd-skip / rdpenalty=0 / psy-rd=2.00 / psy-rdoq=0.00 / no-rd-refine / no-lossless / cbqpoffs=0 / crqpoffs=0 / rc=abr / bitrate=1228 / qcomp=0.60 / qpstep=4 / stats-write=0 / stats-read=0 / ipratio=1.40 / pbratio=1.30 / aq-mode=2 / aq-strength=1.00 / cutree / zone-count=0 / no-strict-cbr / qg-size=32 / no-rc-grain / qpmax=69 / qpmin=0 / no-const-vbv / sar=255 / sar-width / : / sar-height=640:637 / overscan=0 / videoformat=5 / range=0 / colorprim=2 / transfer=2 / colormatrix=2 / chromaloc=0 / display-window=0 / cll=0,0 / min-luma=0 / max-luma=255 / log2-max-poc-lsb=8 / vui-timing-info / vui-hrd-info / slices=1 / no-opt-qp-pps / no-opt-ref-list-length-pps / no-multi-pass-opt-rps / scenecut-bias=0.05 / hist-threshold=0.01 / no-opt-cu-delta-qp / no-aq-motion / no-hdr10 / no-hdr10-opt / no-dhdr10-opt / no-idr-recovery-sei / analysis-reuse-level=0 / analysis-save-reuse-level=0 / analysis-load-reuse-level=0 / scale-factor=0 / refine-intra=0 / refine-inter=0 / refine-mv=1 / refine-ctu-distortion=0 / no-limit-sao / ctu-info=0 / no-lowpass-dct / refine-analysis-type=0 / copy-pic=1 / max-ausize-factor=1.0 / no-dynamic-refine / no-single-sei / no-hevc-aq / no-svt / no-field / qp-adaptation-range=1.00 / no-scenecut-aware-qpconformance-window-offsets / right=0 / bottom=0 / decoder-max-rate=0

Default : Yes

Forced : No

Color range : Limited

Audio #1

ID : 2

Format : AAC LC

Format/Info : Advanced Audio Codec Low Complexity

Codec ID : A_AAC-2

Duration : 1 h 57 min

Bit rate : 254 kb/s

Channel(s) : 2 channels

Channel layout : L R

Sampling rate : 44.1 kHz

Frame rate : 43.066 FPS (1024 SPF)

Compression mode : Lossy

Stream size : 213 MiB (15%)

Title : Hindi

Language : Hindi

Default : Yes

Forced : No

Audio #2

ID : 3

Format : AAC LC

Format/Info : Advanced Audio Codec Low Complexity

Codec ID : A_AAC-2

Duration : 1 h 57 min

Bit rate : 254 kb/s

Channel(s) : 2 channels

Channel layout : L R

Sampling rate : 44.1 kHz

Frame rate : 43.066 FPS (1024 SPF)

Compression mode : Lossy

Stream size : 213 MiB (15%)

Title : English

Language : English

Default : No

Forced : No

Text #1

ID : 4

Format : UTF-8

Codec ID : S_TEXT/UTF8

Codec ID/Info : UTF-8 Plain Text

Duration : 1 h 46 min

Bit rate : 65 b/s

Count of elements : 1150

Stream size : 51.2 KiB (0%)

Title : English

Language : English

Default : No

Forced : No

Text #2

ID : 5

Format : UTF-8

Codec ID : S_TEXT/UTF8

Codec ID/Info : UTF-8 Plain Text

Duration : 1 h 46 min

Bit rate : 65 b/s

Count of elements : 1150

Stream size : 51.2 KiB (0%)

Title : English

Language : English

Default : No

Forced : No

Text #3

ID : 6

Format : UTF-8

Codec ID : S_TEXT/UTF8

Codec ID/Info : UTF-8 Plain Text

Duration : 1 h 55 min

Bit rate : 32 b/s

Count of elements : 975

Stream size : 27.8 KiB (0%)

Title : Croatian

Language : Croatian

Default : No

Forced : No

Text #4

ID : 7

Format : UTF-8

Codec ID : S_TEXT/UTF8

Codec ID/Info : UTF-8 Plain Text

Duration : 1 h 55 min

Bit rate : 36 b/s

Count of elements : 777

Stream size : 30.8 KiB (0%)

Title : Czech

Language : Czech

Default : No

Forced : No

Text #5

ID : 8

Format : UTF-8

Codec ID : S_TEXT/UTF8

Codec ID/Info : UTF-8 Plain Text

Duration : 1 h 55 min

Bit rate : 36 b/s

Count of elements : 979

Stream size : 30.8 KiB (0%)

Title : Danish

Language : Danish

Default : No

Forced : No

Text #6

ID : 9

Format : UTF-8

Codec ID : S_TEXT/UTF8

Codec ID/Info : UTF-8 Plain Text

Duration : 1 h 55 min

Bit rate : 32 b/s

Count of elements : 888

Stream size : 27.7 KiB (0%)

Title : Dutch

Language : Dutch

Default : No

Forced : No

Text #7

ID : 10

Format : UTF-8

Codec ID : S_TEXT/UTF8

Codec ID/Info : UTF-8 Plain Text

Duration : 1 h 55 min

Bit rate : 33 b/s

Count of elements : 875

Stream size : 28.7 KiB (0%)

Title : Finnish

Language : Finnish

Default : No

Forced : No

Text #8

ID : 11

Format : UTF-8

Codec ID : S_TEXT/UTF8

Codec ID/Info : UTF-8 Plain Text

Duration : 1 h 55 min

Bit rate : 61 b/s

Count of elements : 993

Stream size : 52.5 KiB (0%)

Title : Greek

Language : Greek

Default : No

Forced : No

Text #9

ID : 12

Format : UTF-8

Codec ID : S_TEXT/UTF8

Codec ID/Info : UTF-8 Plain Text

Duration : 1 h 55 min

Bit rate : 59 b/s

Count of elements : 993

Stream size : 49.9 KiB (0%)

Title : Hebrew

Language : Hebrew

Default : No

Forced : No

Text #10

ID : 13

Format : UTF-8

Codec ID : S_TEXT/UTF8

Codec ID/Info : UTF-8 Plain Text

Duration : 1 h 55 min

Bit rate : 37 b/s

Count of elements : 980

Stream size : 31.4 KiB (0%)

Title : Hungarian

Language : Hungarian

Default : No

Forced : No

Text #11

ID : 14

Format : UTF-8

Codec ID : S_TEXT/UTF8

Codec ID/Info : UTF-8 Plain Text

Duration : 1 h 55 min

Bit rate : 43 b/s

Count of elements : 1024

Stream size : 36.6 KiB (0%)

Title : Korean

Language : Korean

Default : No

Forced : No

Text #12

ID : 15

Format : UTF-8

Codec ID : S_TEXT/UTF8

Codec ID/Info : UTF-8 Plain Text

Duration : 1 h 55 min

Bit rate : 33 b/s

Count of elements : 953

Stream size : 28.1 KiB (0%)

Title : Norwegian Bokmal

Language : Norwegian Bokmal

Default : No

Forced : No

Text #13

ID : 16

Format : UTF-8

Codec ID : S_TEXT/UTF8

Codec ID/Info : UTF-8 Plain Text

Duration : 1 h 55 min

Bit rate : 35 b/s

Count of elements : 998

Stream size : 29.7 KiB (0%)

Title : Polish

Language : Polish

Default : No

Forced : No

Text #14

ID : 17

Format : UTF-8

Codec ID : S_TEXT/UTF8

Codec ID/Info : UTF-8 Plain Text

Duration : 1 h 55 min

Bit rate : 36 b/s

Count of elements : 969

Stream size : 30.7 KiB (0%)

Title : Portuguese

Language : Portuguese

Default : No

Forced : No

Text #15

ID : 18

Format : UTF-8

Codec ID : S_TEXT/UTF8

Codec ID/Info : UTF-8 Plain Text

Duration : 1 h 55 min

Bit rate : 34 b/s

Count of elements : 1000

Stream size : 29.5 KiB (0%)

Title : Brazilian Portuguese

Language : Portuguese

Default : No

Forced : No

Text #16

ID : 19

Format : UTF-8

Codec ID : S_TEXT/UTF8

Codec ID/Info : UTF-8 Plain Text

Duration : 1 h 55 min

Bit rate : 37 b/s

Count of elements : 948

Stream size : 32.0 KiB (0%)

Title : Romanian

Language : Romanian

Default : No

Forced : No

Text #17

ID : 20

Format : UTF-8

Codec ID : S_TEXT/UTF8

Codec ID/Info : UTF-8 Plain Text

Duration : 1 h 55 min

Bit rate : 35 b/s

Count of elements : 989

Stream size : 30.1 KiB (0%)

Title : Spanish

Language : Spanish

Default : No

Forced : No

Text #18

ID : 21

Format : UTF-8

Codec ID : S_TEXT/UTF8

Codec ID/Info : UTF-8 Plain Text

Duration : 1 h 55 min

Bit rate : 34 b/s

Count of elements : 934

Stream size : 29.2 KiB (0%)

Title : European Spanish

Language : Spanish

Default : No

Forced : No

Text #19

ID : 22

Format : UTF-8

Codec ID : S_TEXT/UTF8

Codec ID/Info : UTF-8 Plain Text

Duration : 1 h 55 min

Bit rate : 35 b/s

Count of elements : 974

Stream size : 30.3 KiB (0%)

Title : Swedish

Language : Swedish

Default : No

Forced : No

Text #20

ID : 23

Format : UTF-8

Codec ID : S_TEXT/UTF8

Codec ID/Info : UTF-8 Plain Text

Duration : 1 h 55 min

Bit rate : 36 b/s

Count of elements : 964

Stream size : 30.9 KiB (0%)

Title : Turkish

Language : Turkish

Default : No

Forced : No

Stowaway 2021 720p NF WEB-DL Download Torrent Magnet

#Stowaway #720p #WEBDL