Stowaway.2021.2160p.NF.WEB-DL Full Torrent Magnet Download

Download Torrent Stowaway.2021.2160p.NF.WEB-DL Movie Full in HD Result. Movie Stowaway.2021.2160p.NF.WEB-DL Torrent Download full. Movie Stowaway.2021.2160p.NF.WEB-DL torrent Magnet Download Full. Stowaway.2021.2160p.NF.WEB-DL Full Movie Torrent Download And Magnet Download For your PC And Mobiles. Latest Movie Stowaway.2021.2160p.NF.WEB-DL Download Link In Bottom.

Torrent And Magnet Links Below

General

Unique ID : 205614117637036173685568713900277226210 (0x9AAFD6AF7229DF97FD1B2688F98DDAE2)

Complete name : /data/disk6/bonsaihd/files/downloads/Stowaway.2021.2160p.NF.WEB-DL.HIN-ENG.DDP.5.1.x265-Shadow.mkv/Stowaway.2021.2160p.NF.WEB-DL.HIN-ENG.DDP.5.1.x265-Telly.mkv

Format : Matroska

Format version : Version 4 / Version 2

File size : 13.0 GiB

Duration : 1h 57mn

Overall bit rate : 15.9 Mbps

Movie name : Telly

Encoded date : UTC 2021-04-22 18:23:38

Writing application : mkvmerge v56.1.0 (‘My Friend’) 64-bit

Writing library : libebml v1.4.2 + libmatroska v1.6.4

Video

ID : 1

Format : HEVC

Format/Info : High Efficiency Video Coding

Format profile : [email protected]@Main

Codec ID : V_MPEGH/ISO/HEVC

Duration : 1h 57mn

Bit rate : 14.7 Mbps

Width : 3 840 pixels

Height : 2 160 pixels

Display aspect ratio : 16:9

Frame rate mode : Constant

Frame rate : 24.000 fps

Standard : NTSC

Color space : YUV

Chroma subsampling : 4:2:0

Bit depth : 8 bits

Bits/(Pixel*Frame) : 0.074

Stream size : 12.0 GiB (92%)

Default : Yes

Forced : No

Color range : Limited

Color primaries : BT.709

Transfer characteristics : BT.709

Matrix coefficients : BT.709

Audio #1

ID : 2

Format : E-AC-3

Format/Info : Audio Coding 3

Format settings, Endianness : Big

Codec ID : A_EAC3

Duration : 1h 57mn

Bit rate mode : Constant

Bit rate : 640 Kbps

Channel(s) : 6 channels

Channel positions : Front: L C R, Side: L R, LFE

Sampling rate : 48.0 KHz

Frame rate : 187.500 fps (256 spf)

Compression mode : Lossy

Stream size : 536 MiB (4%)

Title : Hindi

Language : Hindi

Default : Yes

Forced : No

Audio #2

ID : 3

Format : E-AC-3

Format/Info : Audio Coding 3

Format settings, Endianness : Big

Codec ID : A_EAC3

Duration : 1h 57mn

Bit rate mode : Constant

Bit rate : 640 Kbps

Channel(s) : 6 channels

Channel positions : Front: L C R, Side: L R, LFE

Sampling rate : 48.0 KHz

Frame rate : 187.500 fps (256 spf)

Compression mode : Lossy

Stream size : 536 MiB (4%)

Title : English

Language : English

Default : No

Forced : No

Text #1

ID : 4

Format : UTF-8

Codec ID : S_TEXT/UTF8

Codec ID/Info : UTF-8 Plain Text

Duration : 1h 46mn

Bit rate : 65 bps

Count of elements : 1150

Stream size : 51.2 KiB (0%)

Title : English

Language : English

Default : No

Forced : No

Text #2

ID : 5

Format : UTF-8

Codec ID : S_TEXT/UTF8

Codec ID/Info : UTF-8 Plain Text

Duration : 1h 46mn

Bit rate : 65 bps

Count of elements : 1150

Stream size : 51.2 KiB (0%)

Title : English

Language : English

Default : No

Forced : No



Stowaway.2021.2160p.NF.WEB-DLDownload Torrent Magnet

#Stowaway20212160pNFWEBDL