Stowaway.2021.1080p.NF.WEB-DL Full Torrent Magnet Download

Download Torrent Stowaway.2021.1080p.NF.WEB-DL Movie Full in HD Result. Movie Stowaway.2021.1080p.NF.WEB-DL Torrent Download full. Movie Stowaway.2021.1080p.NF.WEB-DL torrent Magnet Download Full. Stowaway.2021.1080p.NF.WEB-DL Full Movie Torrent Download And Magnet Download For your PC And Mobiles. Latest Movie Stowaway.2021.1080p.NF.WEB-DL Download Link In Bottom.

Torrent And Magnet Links Below

General

Unique ID : 75822941594314971960654540039175785881 (0x390AF7A57B55E639C4F9FE8CC837CD99)

Complete name :Stowaway.2021.1080p.NF.WEB-DL.HIN-ENG.DD+5.1.x264-Shadow.mkv

Format : Matroska

Format version : Version 4 / Version 2

File size : 2.47 GiB

Duration : 1h 57mn

Overall bit rate mode : Variable

Overall bit rate : 3 021 Kbps

Movie name : Telly

Encoded date : UTC 2021-04-22 07:22:36

Writing application : mkvmerge v51.0.0 (‘I Wish’) 64-bit

Writing library : libebml v1.4.0 + libmatroska v1.6.2

Video

ID : 1

Format : AVC

Format/Info : Advanced Video Codec

Format profile : [email protected]
Format settings, CABAC : Yes

Format settings, ReFrames : 3 frames

Codec ID : V_MPEG4/ISO/AVC

Duration : 1h 57mn

Bit rate mode : Variable

Bit rate : 1 738 Kbps

Nominal bit rate : 2 023 Kbps

Maximum bit rate : 3 225 Kbps

Width : 1 920 pixels

Height : 1 080 pixels

Display aspect ratio : 16:9

Frame rate mode : Constant

Frame rate : 24.000 fps

Color space : YUV

Chroma subsampling : 4:2:0

Bit depth : 8 bits

Scan type : Progressive

Bits/(Pixel*Frame) : 0.035

Stream size : 1.42 GiB (58%)

Writing library : x264 core 148 r2722 1b0121b

Encoding settings : cabac=1 / ref=3 / deblock=1:0:0 / analyse=0x1:0x111 / me=umh / subme=10 / psy=1 / psy_rd=1.00:0.00 / mixed_ref=1 / me_range=24 / chroma_me=1 / trellis=2 / 8x8dct=0 / cqm=0 / deadzone=21,11 / fast_pskip=1 / chroma_qp_offset=-2 / threads=8 / lookahead_threads=1 / sliced_threads=0 / nr=0 / decimate=1 / interlaced=0 / bluray_compat=0 / stitchable=1 / constrained_intra=0 / bframes=2 / b_pyramid=0 / b_adapt=2 / b_bias=0 / direct=3 / weightb=1 / open_gop=0 / weightp=2 / keyint=250 / keyint_min=24 / scenecut=0 / intra_refresh=0 / rc_lookahead=48 / rc=2pass / mbtree=1 / bitrate=2023 / ratetol=1.0 / qcomp=0.50 / qpmin=6 / qpmax=51 / qpstep=4 / cplxblur=20.0 / qblur=0.5 / vbv_maxrate=3225 / vbv_bufsize=4300 / nal_hrd=vbr / filler=0 / ip_ratio=1.40 / aq=1:1.00

Default : Yes

Forced : No

Audio #1

ID : 2

Format : E-AC-3

Format/Info : Audio Coding 3

Format settings, Endianness : Big

Codec ID : A_EAC3

Duration : 1h 57mn

Bit rate mode : Constant

Bit rate : 640 Kbps

Channel(s) : 6 channels

Channel positions : Front: L C R, Side: L R, LFE

Sampling rate : 48.0 KHz

Frame rate : 187.500 fps (256 spf)

Compression mode : Lossy

Stream size : 536 MiB (21%)

Title : Hindi

Language : Hindi

Default : Yes

Forced : No

Audio #2

ID : 3

Format : E-AC-3

Format/Info : Audio Coding 3

Format settings, Endianness : Big

Codec ID : A_EAC3

Duration : 1h 57mn

Bit rate mode : Constant

Bit rate : 640 Kbps

Channel(s) : 6 channels

Channel positions : Front: L C R, Side: L R, LFE

Sampling rate : 48.0 KHz

Frame rate : 187.500 fps (256 spf)

Compression mode : Lossy

Stream size : 536 MiB (21%)

Title : English

Language : English

Default : No

Forced : No

Text #1

ID : 4

Format : UTF-8

Codec ID : S_TEXT/UTF8

Codec ID/Info : UTF-8 Plain Text

Duration : 1h 46mn

Bit rate : 65 bps

Count of elements : 1150

Stream size : 51.2 KiB (0%)

Title : English

Language : English

Default : No

Forced : No

Text #2

ID : 5

Format : UTF-8

Codec ID : S_TEXT/UTF8

Codec ID/Info : UTF-8 Plain Text

Duration : 1h 46mn

Bit rate : 65 bps

Count of elements : 1150

Stream size : 51.2 KiB (0%)

Title : English

Language : English

Default : No

Forced : No



Stowaway.2021.1080p.NF.WEB-DLDownload Torrent Magnet

#Stowaway20211080pNFWEBDL