Stitches.[Savovi].2019.DVDRip Full Torrent Magnet Download

Download Torrent Stitches.[Savovi].2019.DVDRip Movie Full in HD Result. Movie Stitches.[Savovi].2019.DVDRip Torrent Download full. Movie Stitches.[Savovi].2019.DVDRip torrent Magnet Download Full. Stitches.[Savovi].2019.DVDRip Full Movie Torrent Download And Magnet Download For your PC And Mobiles. Latest Movie Stitches.[Savovi].2019.DVDRip Download Link In Bottom.

Torrent And Magnet Links Below

Release: Stitches.[Savovi].2019.DVDRip.x264-LAA

IMDB: https://www.imdb.com/title/tt7319312

Subtitle: English (soft)

Plot: Stitches combines elements of thriller and melodrama, and deals with the story of newborn babies abducted from hospitals, which has been a hot social issue in Serbia recently. The script penned by Elma Tataragic tells the story of woman who firmly believes that her newborn baby was stolen from her more than 20 years ago, while she was told that her baby died.

General

Complete name : Stitches.[Savovi].2019.DVDRip.x264-LAA.mkv

Format : Matroska

Format version : Version 4

File size : 1.44 GiB

Duration : 1 h 34 min

Overall bit rate : 2 195 kb/s

Encoded date : UTC 2021-04-11 23:41:44

Writing application : mkvmerge v56.0.0 (‘Strasbourg / St. Denis’) 64-bit

Writing library : libebml v1.4.2 + libmatroska v1.6.4

Video

ID : 1

Format : AVC

Format/Info : Advanced Video Codec

Format profile : [email protected]
Format settings : CABAC / 10 Ref Frames

Format settings, CABAC : Yes

Format settings, Reference : 10 frames

Codec ID : V_MPEG4/ISO/AVC

Duration : 1 h 34 min

Bit rate : 1 746 kb/s

Width : 720 pixels

Height : 428 pixels

Display aspect ratio : 2.40:1

Frame rate mode : Constant

Frame rate : 25.000 FPS

Color space : YUV

Chroma subsampling : 4:2:0

Bit depth : 8 bits

Scan type : Progressive

Bits/(Pixel*Frame) : 0.227

Stream size : 1.15 GiB (80%)

Writing library : x264 core 157 r2969 d4099dd

Encoding settings : cabac=1 / ref=10 / deblock=1:-3:-3 / analyse=0x3:0x133 / me=umh / subme=10 / psy=1 / psy_rd=1.00:0.00 / mixed_ref=1 / me_range=28 / chroma_me=1 / trellis=2 / 8x8dct=1 / cqm=0 / deadzone=21,11 / fast_pskip=0 / chroma_qp_offset=-2 / threads=6 / lookahead_threads=1 / sliced_threads=0 / nr=0 / decimate=1 / interlaced=0 / bluray_compat=0 / constrained_intra=0 / bframes=7 / b_pyramid=2 / b_adapt=2 / b_bias=0 / direct=3 / weightb=1 / open_gop=0 / weightp=2 / keyint=250 / keyint_min=25 / scenecut=40 / intra_refresh=0 / rc_lookahead=250 / rc=crf / mbtree=0 / crf=15.6 / qcomp=0.60 / qpmin=0 / qpmax=69 / qpstep=4 / vbv_maxrate=30000 / vbv_bufsize=38000 / crf_max=0.0 / nal_hrd=none / filler=0 / ip_ratio=1.30 / pb_ratio=1.20 / aq=1:0.68

Default : Yes

Forced : No

Color range : Limited

Color primaries : BT.601 PAL

Matrix coefficients : BT.470 System B/G

Audio

ID : 2

Format : AC-3

Format/Info : Audio Coding 3

Commercial name : Dolby Digital

Codec ID : A_AC3

Duration : 1 h 34 min

Bit rate mode : Constant

Bit rate : 448 kb/s

Channel(s) : 6 channels

Channel layout : L R C LFE Ls Rs

Sampling rate : 48.0 kHz

Frame rate : 31.250 FPS (1536 SPF)

Compression mode : Lossy

Stream size : 301 MiB (20%)

Language : Serbian

Service kind : Complete Main

Default : Yes

Forced : No

Text

ID : 3

Format : UTF-8

Codec ID : S_TEXT/UTF8

Codec ID/Info : UTF-8 Plain Text

Duration : 1 h 26 min

Bit rate : 25 b/s

Count of elements : 541

Stream size : 16.0 KiB (0%)

Language : English

Default : Yes

Forced : No

SCREENSHOTS:





Stitches.[Savovi].2019.DVDRipDownload Torrent Magnet

#StitchesSavovi2019DVDRip