Stitches.[Savovi].2019.720p.H Full Torrent Magnet Download

Download Torrent Stitches.[Savovi].2019.720p.H Movie Full in HD Result. Movie Stitches.[Savovi].2019.720p.H Torrent Download full. Movie Stitches.[Savovi].2019.720p.H torrent Magnet Download Full. Stitches.[Savovi].2019.720p.H Full Movie Torrent Download And Magnet Download For your PC And Mobiles. Latest Movie Stitches.[Savovi].2019.720p.H Download Link In Bottom.

Torrent And Magnet Links Below

Release: Stitches.[Savovi].2019.720p.HDTV.x264

IMDB: https://www.imdb.com/title/tt7319312

Plot: Stitches combines elements of thriller and melodrama, and deals with the story of newborn babies abducted from hospitals, which has been a hot social issue in Serbia recently. The script penned by Elma Tataragic tells the story of woman who firmly believes that her newborn baby was stolen from her more than 20 years ago, while she was told that her baby died.

General

Complete name : Stitches.[Savovi].2019.720p.HDTV.x264.mp4

Format : MPEG-4

Format profile : Base Media / Version 2

Codec ID : mp42 (isom/iso2/avc1/mp41)

File size : 1.05 GiB

Duration : 1 h 31 min

Overall bit rate : 1 634 kb/s

Encoded date : UTC 2020-01-18 22:51:22

Tagged date : UTC 2020-01-18 22:51:22

Writing application : HandBrake 1.2.2 2019022300

Video

ID : 1

Format : AVC

Format/Info : Advanced Video Codec

Format profile : [email protected]
Format settings : CABAC / 4 Ref Frames

Format settings, CABAC : Yes

Format settings, Reference : 4 frames

Codec ID : avc1

Codec ID/Info : Advanced Video Coding

Duration : 1 h 31 min

Bit rate : 1 500 kb/s

Width : 1 280 pixels

Height : 720 pixels

Display aspect ratio : 16:9

Frame rate mode : Variable

Frame rate : 25.000 FPS

Minimum frame rate : 16.667 FPS

Maximum frame rate : 25.000 FPS

Color space : YUV

Chroma subsampling : 4:2:0

Bit depth : 8 bits

Scan type : Progressive

Bits/(Pixel*Frame) : 0.065

Stream size : 983 MiB (92%)

Writing library : x264 core 157 r2935 545de2f

Encoding settings : cabac=1 / ref=3 / deblock=1:-1:-1 / analyse=0x3:0x113 / me=hex / subme=7 / psy=1 / psy_rd=1.00:0.15 / mixed_ref=1 / me_range=16 / chroma_me=1 / trellis=1 / 8x8dct=1 / cqm=0 / deadzone=21,11 / fast_pskip=1 / chroma_qp_offset=-3 / threads=12 / lookahead_threads=2 / sliced_threads=0 / nr=0 / decimate=1 / interlaced=0 / bluray_compat=0 / constrained_intra=0 / bframes=3 / b_pyramid=2 / b_adapt=1 / b_bias=0 / direct=1 / weightb=1 / open_gop=0 / weightp=2 / keyint=250 / keyint_min=25 / scenecut=40 / intra_refresh=0 / rc_lookahead=40 / rc=2pass / mbtree=1 / bitrate=1500 / ratetol=1.0 / qcomp=0.60 / qpmin=0 / qpmax=69 / qpstep=4 / cplxblur=20.0 / qblur=0.5 / vbv_maxrate=300000 / vbv_bufsize=300000 / nal_hrd=none / filler=0 / ip_ratio=1.40 / aq=1:1.00

Encoded date : UTC 2020-01-18 22:51:22

Tagged date : UTC 2020-01-18 22:51:22

Color range : Limited

Color primaries : BT.709

Transfer characteristics : BT.709

Matrix coefficients : BT.709

Codec configuration box : avcC

Audio

ID : 2

Format : AAC LC

Format/Info : Advanced Audio Codec Low Complexity

Codec ID : mp4a-40-2

Duration : 1 h 31 min

Bit rate mode : Constant

Bit rate : 128 kb/s

Channel(s) : 2 channels

Channel layout : L R

Sampling rate : 48.0 kHz

Frame rate : 46.875 FPS (1024 SPF)

Compression mode : Lossy

Stream size : 83.8 MiB (8%)

Title : Stereo

Language : Serbian

Default : Yes

Alternate group : 1

Encoded date : UTC 2020-01-18 22:51:22

Tagged date : UTC 2020-01-18 22:51:22

SCREENSHOTS:





Stitches.[Savovi].2019.720p.HDownload Torrent Magnet

#StitchesSavovi2019720pH