Stavisky (1974) BDRip 1080p A Full Torrent Magnet Download

Download Torrent Stavisky (1974) BDRip 1080p A Movie Full in HD Result. Movie Stavisky (1974) BDRip 1080p A Torrent Download full. Movie Stavisky (1974) BDRip 1080p A torrent Magnet Download Full. Stavisky (1974) BDRip 1080p A Full Movie Torrent Download And Magnet Download For your PC And Mobiles. Latest Movie Stavisky (1974) BDRip 1080p A Download Link In Bottom.

Torrent And Magnet Links Below

IMDB

Code:


General

Complete name : Stavisky.(1974).BDRip.1080p.AC3.[Borsalino].EN.srt

Format : SubRip

File size : 91.9 KiB

Text

Format : SubRip

Compression mode : Lossless

General

Complete name : Stavisky.(1974).BDRip.1080p.AC3.[Borsalino].ES.srt

Format : SubRip

File size : 97.4 KiB

Text

Format : SubRip

Compression mode : Lossless

General

Complete name : Stavisky.(1974).BDRip.1080p.AC3.[Borsalino].FR.srt

Format : SubRip

File size : 104 KiB

Text

Format : SubRip

Compression mode : Lossless

General

Complete name : Stavisky.(1974).BDRip.1080p.AC3.[Borsalino].IT.srt

Format : SubRip

File size : 94.6 KiB

Text

Format : SubRip

Compression mode : Lossless

General

Complete name : Stavisky.(1974).BDRip.1080p.AC3.[Borsalino].mkv

Format : Matroska

Format version : Version 4

File size : 14.3 GiB

Duration : 1 h 57 min

Overall bit rate : 17.5 Mb/s

Movie name : Stavisky.(1974).BDRip.1080p.AC3.[Borsalino]
Writing application : mkvmerge v56.1.0 (‘My Friend’) 64-bit

Writing library : libebml v1.4.2 + libmatroska v1.6.4

Video

ID : 1

Format : AVC

Format/Info : Advanced Video Codec

Format profile : [email protected]
Format settings : CABAC / 4 Ref Frames

Format settings, CABAC : Yes

Format settings, Reference frames : 4 frames

Codec ID : V_MPEG4/ISO/AVC

Duration : 1 h 57 min

Bit rate : 17.3 Mb/s

Width : 1 796 pixels

Height : 1 080 pixels

Display aspect ratio : 5:3

Frame rate mode : Constant

Frame rate : 24.000 FPS

Color space : YUV

Chroma subsampling : 4:2:0

Bit depth : 8 bits

Scan type : Progressive

Bits/(Pixel*Frame) : 0.372

Stream size : 14.2 GiB (99%)

Title : French

Writing library : x264 core 159 r2991 1771b55

Encoding settings : cabac=1 / ref=4 / deblock=1:-2:-2 / analyse=0x3:0x113 / me=umh / subme=11 / psy=1 / psy_rd=1.00:0.15 / mixed_ref=1 / me_range=32 / chroma_me=1 / trellis=2 / 8x8dct=1 / cqm=0 / deadzone=21,11 / fast_pskip=0 / chroma_qp_offset=-3 / threads=6 / lookahead_threads=1 / sliced_threads=0 / nr=0 / decimate=1 / interlaced=0 / bluray_compat=0 / constrained_intra=0 / bframes=9 / b_pyramid=2 / b_adapt=2 / b_bias=0 / direct=1 / weightb=1 / open_gop=0 / weightp=2 / keyint=230 / keyint_min=23 / scenecut=40 / intra_refresh=0 / rc_lookahead=40 / rc=crf / mbtree=1 / crf=18.0 / qcomp=0.60 / qpmin=0 / qpmax=69 / qpstep=4 / vbv_maxrate=50000 / vbv_bufsize=62500 / crf_max=0.0 / nal_hrd=none / filler=0 / ip_ratio=1.40 / aq=1:1.00

Language : French

Default : Yes

Forced : No

Audio

ID : 2

Format : AC-3

Format/Info : Audio Coding 3

Commercial name : Dolby Digital

Codec ID : A_AC3

Duration : 1 h 57 min

Bit rate mode : Constant

Bit rate : 192 kb/s

Channel(s) : 2 channels

Channel layout : L R

Sampling rate : 48.0 kHz

Frame rate : 31.250 FPS (1536 SPF)

Compression mode : Lossy

Stream size : 161 MiB (1%)

Title : French

Language : French

Service kind : Complete Main

Default : No

Forced : No

Spoken language

Subtitles (srt files)











Stavisky (1974) BDRip 1080p ADownload Torrent Magnet

#Stavisky #BDRip #1080p