Starship Troopers 1997 Bonus Full Torrent Magnet Download

Download Torrent Starship Troopers 1997 Bonus Movie Full in HD Result. Movie Starship Troopers 1997 Bonus Torrent Download full. Movie Starship Troopers 1997 Bonus torrent Magnet Download Full. Starship Troopers 1997 Bonus Full Movie Torrent Download And Magnet Download For your PC And Mobiles. Latest Movie Starship Troopers 1997 Bonus Download Link In Bottom.

Torrent And Magnet Links Below

______________________________________________________________________________________________________________
Starship Troopers 1997
Bluray · 1080p x265 10bits · DD+ 5.1 VFF VFQ ENG
More Bonus
¯¯¯¯¯¯¯¯¯¯¯¯¯¯¯¯¯¯¯¯¯¯¯¯¯¯¯¯¯¯¯¯¯¯¯¯¯¯¯¯¯¯¯¯¯¯¯¯¯¯¯¯¯¯¯¯¯¯¯¯¯¯¯¯¯¯¯¯¯¯¯¯¯¯¯¯¯¯¯¯

Year : 1997

Country : United States

Original, French and English Title : Starship Troopers

Quebec Title : Les Patrouilleurs de l’espace

Director : Paul Verhoeven
Music from : Basil Poledouris

Acteurs : Casper Van Dien, Dina Meyer, Denise Richards, Jake Busey, Neil Patrick Harris, Clancy Brown, Seth Gilliam, Patrick Muldoon

Michael Ironside, Rue McClanahan, Marshall Bell, Eric Bruskotter, Matt Levin, Blake Lindsley, Anthony Ruivivar, Brenda Strong

Dean Norris

Genre : Sci-Fi, War, Action

Certificate : Not recommended for children under 12 years old
Budget : 95 000 000 $ · Recipe : 121 214 377 $ · ratio : 128 %

Link : Allociné 3,7 /5 · IMDB 7,2 /10 · TMDB 68 % · SensCritique 7,3 /10 · Wiki · Bande Annonce

French Plot
Au XXIVe siècle , une fédération musclée fait régner sur la Terre l’ordre et la vertu, exhortant sans relâche la jeunesse à la lutte, au devoir, à l’abnégation et au sacrifice de soi. Mais aux confins de la galaxie, une armée d’arachnides se dresse contre l’espèce humaine et ces insectes géants rasent en quelques secondes la ville de Buenos-Aires . Cinq jeunes gens, cinq volontaires à peine sortis du lycée, pleins d’ardeurs et de courage, partent en mission dans l’espace pour combattre les envahisseurs. Ils sont loin de se douter de ce qui les attend.

Librement inspiré du roman : Starship Troopers (Étoiles, garde-à-vous !) de Robert A. Heinlein 1959

Bonus
3 FX Scenes 8 mn – 54,50 Mib – 720×480 HEVC 10Bits – VOSTFR – 50b8b262
5 Deleted Scenes 7 mn – 50,50 Mib – 720×480 HEVC 10Bits – VOSTFR – 52c45b86
9 Deleted Scenes 29 mn – 282,0 Mib – 720×480 HEVC 10Bits – VO – 3ea3f44d
Bluray Opening 1 mn – 7,48 Mib – 1920×1080 HEVC 10Bits – MUET – 6d683244
Bugges 3D 4 mn – 29,10 Mib – 720×480 HEVC 10Bits – MUET – b8ab4364
Creature Designe 17 mn – 130,0 Mib – 720×480 HEVC 10Bits – VO – 3e9c078e
Essaies 3 mn – 29,50 Mib – 720×480 HEVC 10Bits – VOSTFR – 49db8e88
Federal Network 1 7 mn – 52,00 Mib – 720×480 HEVC 10Bits – VOSTFR – 283c8ce6
Federal Network 2 12 mn – 95,30 Mib – 720×480 HEVC 10Bits – VO – 542b572e
Federal Network 3 3 mn – 27,20 Mib – 720×480 HEVC 10Bits – VO – 5cc51a2f
Federal Network 4 1 mn – 6,21 Mib – 720×480 HEVC 10Bits – VO – e09172b6
Making of 31 mn – 243,0 Mib – 720×480 HEVC 10Bits – VO – 1efb4656
Storyboard and 3D 7 mn – 64,30 Mib – 720×480 HEVC 10Bits – VO – 7010c2db
Storyboard 11 mn – 65,80 Mib – 720×480 HEVC 10Bits – VO – 7010c2db
14 bonus, total 1,11 Gib 2 h27 mn


If you enjoy and wish to support, please stay in seeding

Technical Details
¯¯¯¯¯¯¯¯¯¯¯¯¯¯¯¯¯¯¯¯¯¯¯¯¯¯¯¯¯¯¯¯¯¯¯¯¯¯¯¯¯¯¯¯¯¯¯¯¯¯¯¯¯¯¯¯¯¯¯¯¯¯¯¯¯¯¯¯¯¯¯¯¯¯¯¯¯¯¯¯¯¯¯¯¯¯¯¯¯¯¯¯¯¯¯¯¯¯¯¯
Media
Matroska 4,37 Gio 2 h09 mn 4832 Kbps, Total 5,48 Gio 4 h36 mn
Video
HEVC/H265 1920 x1040 @23.976 [email protected]@Main 10 bits 3050 Kbps VerySlow qp28,90
Audio
True French 5.1 EAC3 448 Kbps 48KHz 16bits

Quebec French 5.1 EAC3 448 Kbps 48KHz 16bits

English (OV) 5.1 EAC3 448 Kbps 48KHz 16bits

English Commentary by Paul Verhoeven, Casper Van Dien, Dina Meyer and Neil Patrick Harris 2.0 EAC3 128 Kbps 48KHz 16bits

English Commentary by Paul Verhoeven and Edward Neumeier 2.0 EAC3 128 Kbps 48KHz 16bits

English Commentary 2.0 EAC3 128 Kbps 48KHz 16bits

Subtitles
True French forced SRT
True French full SRT
True French forced PGS
True French full PGS
Quebec French full PGS
English full PGS
English full 2 PGS
English full SDH PGS
English full SDH 2 PGS
Chapters
International, True French, English

Screenshot

Origin
Bluray : Video AVC 1080p 23450 Kbps, VFF 5.1 DTS 1509 Kbps, VFQ 5.1 MLP FBA TrueHD 1971 Kbps, Anglais 5.1 TrueHD 1834 Kbps

NFO
¯¯¯¯¯¯¯¯¯¯¯¯¯¯¯¯¯¯¯¯¯¯¯¯¯¯¯¯¯¯¯¯¯¯¯¯¯¯¯¯¯¯¯¯¯¯¯¯¯¯¯¯¯¯¯¯¯¯¯¯¯¯¯¯¯¯¯¯¯¯¯¯¯¯¯¯¯¯¯¯¯¯¯¯¯¯¯¯¯¯¯¯¯¯¯¯¯¯¯¯

General
Format : Matroska
Format version : Version 4

File size : 4.37 GiB
Duration : 2 h 9 min

Overall bit rate : 4 832 kb/s

Movie name : Starship Troopers 1997 de Paul Verhoeven avec Casper Van Dien, Dina Meyer, Denise Richards, Jake Busey, Neil Patrick Harris, Clancy Brown, Seth Gilliam, Patrick Muldoon, Michael Ironside, Rue McClanahan, Marshall Bell, Eric Bruskotter, Matt Levin, Blake Lindsley, Anthony Ruivivar, Brenda Strong, Dean Norris. -12 ans (allocine=4987,imdb=tt0120201) T0M
Encoded date : UTC 2018-10-28 17:34:34

Writing application : mkvmerge v8.0.0 (‘Til The Day That I Die’) 64bit

Writing library : libebml v1.3.1 + libmatroska v1.4.2

Cover : Yes

Attachments : Cover.jpg / Support.jpg

Video
ID : 1

Format : HEVC
Format/Info : High Efficiency Video Coding

Format profile : Main [email protected]@Main

Codec ID : V_MPEGH/ISO/HEVC

Duration : 2 h 9 min

Bit rate : 3 050 kb/s

Width : 1 920 pixels

Height : 1 040 pixels

Display aspect ratio : 1.85:1

Frame rate mode : Constant

Frame rate : 23.976 (24000/1001) FPS

Color space : YUV

Chroma subsampling : 4:2:0

Bit depth : 10 bits

Bits/(Pixel*Frame) : 0.064

Stream size : 2.76 GiB (63%)

Title : Video HEVC 1920×1040 @23.976 x265 [email protected]@Main 10bits 3050kbps 2pass veryslow 2884mn
Writing library : x265 2.6:[Windows][GCC 7.3.0][64 bit] 10bit

Encoding settings : cpuid=1173503 / frame-threads=3 / numa-pools=8 / wpp / no-pmode / no-pme / no-psnr / no-ssim / log-level=2 / input-csp=1 / input-res=1920×1040 / interlace=0 / total-frames=0 / level-idc=0 / high-tier=1 / uhd-bd=0 / ref=5 / no-allow-non-conformance / no-repeat-headers / annexb / no-aud / no-hrd / info / hash=0 / no-temporal-layers / open-gop / min-keyint=24 / keyint=240 / bframes=8 / b-adapt=2 / b-pyramid / bframe-bias=0 / rc-lookahead=40 / lookahead-slices=0 / scenecut=40 / no-intra-refresh / ctu=64 / min-cu-size=8 / rect / amp / max-tu-size=32 / tu-inter-depth=3 / tu-intra-depth=3 / limit-tu=4 / rdoq-level=2 / dynamic-rd=0.00 / no-ssim-rd / signhide / no-tskip / nr-intra=0 / nr-inter=0 / no-constrained-intra / strong-intra-smoothing / max-merge=4 / limit-refs=1 / limit-modes / me=3 / subme=4 / merange=57 / temporal-mvp / weightp / weightb / no-analyze-src-pics / deblock=0:0 / sao / no-sao-non-deblock / rd=6 / no-early-skip / rskip / no-fast-intra / no-tskip-fast / no-cu-lossless / b-intra / no-splitrd-skip / rdpenalty=0 / psy-rd=2.00 / psy-rdoq=1.00 / no-rd-refine / analysis-reuse-mode=0 / no-lossless / cbqpoffs=0 / crqpoffs=0 / rc=abr / bitrate=3050 / qcomp=0.60 / qpstep=4 / stats-write=0 / stats-Read=2 / cplxblur=20.0 / qblur=0.5 / ipratio=1.40 / pbratio=1.30 / aq-mode=1 / aq-strength=1.00 / cutree / zone-count=0 / no-strict-cbr / qg-size=32 / no-rc-grain / qpmax=69 / qpmin=0 / no-const-vbv / sar=1 / overscan=0 / videoformat=5 / range=0 / colorprim=1 / transfer=1 / colormatrix=1 / chromaloc=0 / display-window=0 / max-cll=0,0 / min-luma=0 / max-luma=1023 / log2-max-poc-lsb=8 / vui-timing-info / vui-hrd-info / slices=1 / no-opt-qp-pps / no-opt-ref-list-length-pps / no-multi-pass-opt-rps / scenecut-bias=0.05 / no-opt-cu-delta-qp / no-aq-motion / no-hdr / no-hdr-opt / no-dhdr10-opt / analysis-reuse-level=5 / scale-factor=0 / refine-intra=0 / refine-inter=0 / refine-mv=0 / no-limit-sao / ctu-info=0 / no-lowpass-dct / refine-mv-type=0 / copy-pic=1

Default : Yes

Forced : No

Color range : Limited

Color primaries : BT.709

Transfer characteristics : BT.709

Matrix coefficients : BT.709

Audio #1
ID : 2

Format : E-AC-3
Format/Info : Enhanced AC-3

Commercial name : Dolby Digital Plus

Codec ID : A_EAC3

Duration : 2 h 9 min

Bit rate mode : Constant

Bit rate : 448 kb/s

Channel(s) : 6 channels

Channel layout : L R C LFE Ls Rs

Sampling rate : 48.0 kHz

Frame rate : 31.250 FPS (1536 SPF)

Compression mode : Lossy

Delay relative to video : 9 ms

Stream size : 415 MiB (9%)

Title : Français 5.1 EAC3 448kbps 48khz 16bits
Language : French
Service kind : Complete Main

Default : Yes

Forced : No

Audio #2
ID : 3

Format : E-AC-3
Format/Info : Enhanced AC-3

Commercial name : Dolby Digital Plus

Codec ID : A_EAC3

Duration : 2 h 9 min

Bit rate mode : Constant

Bit rate : 448 kb/s

Channel(s) : 6 channels

Channel layout : L R C LFE Ls Rs

Sampling rate : 48.0 kHz

Frame rate : 31.250 FPS (1536 SPF)

Compression mode : Lossy

Delay relative to video : 5 ms

Stream size : 415 MiB (9%)

Title : Québécois 5.1 EAC3 448kbps 48khz 16bits
Language : French
Service kind : Complete Main

Default : No

Forced : No

Audio #3
ID : 4

Format : E-AC-3
Format/Info : Enhanced AC-3

Commercial name : Dolby Digital Plus

Codec ID : A_EAC3

Duration : 2 h 9 min

Bit rate mode : Constant

Bit rate : 448 kb/s

Channel(s) : 6 channels

Channel layout : L R C LFE Ls Rs

Sampling rate : 48.0 kHz

Frame rate : 31.250 FPS (1536 SPF)

Compression mode : Lossy

Delay relative to video : 5 ms

Stream size : 415 MiB (9%)

Title : English 5.1 EAC3 448kbps 48khz 16bits
Language : English
Service kind : Complete Main

Default : No

Forced : No

Audio #4
ID : 5

Format : E-AC-3
Format/Info : Enhanced AC-3

Commercial name : Dolby Digital Plus

Codec ID : A_EAC3

Duration : 2 h 9 min

Bit rate mode : Constant

Bit rate : 128 kb/s

Channel(s) : 2 channels

Channel layout : L R

Sampling rate : 48.0 kHz

Frame rate : 31.250 FPS (1536 SPF)

Compression mode : Lossy

Delay relative to video : 5 ms

Stream size : 119 MiB (3%)

Title : English comment by Paul Verhoeven, Casper Van Dien, Dina Meyer and Neil Patrick Harris 2.0 EAC3 128kbps 48khz 16bits
Language : English
Service kind : Complete Main

Default : No

Forced : No

Audio #5
ID : 6

Format : E-AC-3
Format/Info : Enhanced AC-3

Commercial name : Dolby Digital Plus

Codec ID : A_EAC3

Duration : 2 h 9 min

Bit rate mode : Constant

Bit rate : 128 kb/s

Channel(s) : 2 channels

Channel layout : L R

Sampling rate : 48.0 kHz

Frame rate : 31.250 FPS (1536 SPF)

Compression mode : Lossy

Delay relative to video : 5 ms

Stream size : 119 MiB (3%)

Title : English comment by Paul Verhoeven and Edward Neumeier 2.0 EAC3 128kbps 48khz 16bits
Language : English
Service kind : Complete Main

Default : No

Forced : No

Audio #6
ID : 7

Format : E-AC-3
Format/Info : Enhanced AC-3

Commercial name : Dolby Digital Plus

Codec ID : A_EAC3

Duration : 2 h 9 min

Bit rate mode : Constant

Bit rate : 128 kb/s

Channel(s) : 2 channels

Channel layout : L R

Sampling rate : 48.0 kHz

Frame rate : 31.250 FPS (1536 SPF)

Compression mode : Lossy

Delay relative to video : 5 ms

Stream size : 119 MiB (3%)

Title : English comment 2.0 EAC3 128kbps 48khz 16bits
Language : English
Service kind : Complete Main

Default : No

Forced : No

Text #1
ID : 8

Format : UTF-8
Codec ID : S_TEXT/UTF8

Codec ID/Info : UTF-8 Plain Text

Duration : 2 h 9 min

Bit rate : 1 b/s

Count of elements : 54

Stream size : 1.34 KiB (0%)

Title : Français forcé (Passages)
Language : French
Default : Yes

Forced : Yes

Text #2
ID : 9

Format : UTF-8
Codec ID : S_TEXT/UTF8

Codec ID/Info : UTF-8 Plain Text

Duration : 2 h 9 min

Bit rate : 37 b/s

Count of elements : 919

Stream size : 35.2 KiB (0%)

Title : Français complet (Tous le film)
Language : French
Default : No

Forced : No

Text #3
ID : 10

Format : PGS
Muxing mode : zlib

Codec ID : S_HDMV/PGS

Codec ID/Info : Picture based subtitle format used on BDs/HD-DVDs

Duration : 1 h 58 min

Bit rate : 122 b/s

Count of elements : 56

Stream size : 107 KiB (0%)

Title : Français forcé (Passages) PGS
Language : French
Default : No

Forced : No

Text #4
ID : 11

Format : PGS
Muxing mode : zlib

Codec ID : S_HDMV/PGS

Codec ID/Info : Picture based subtitle format used on BDs/HD-DVDs

Duration : 1 h 58 min

Bit rate : 5 873 b/s

Count of elements : 1826

Stream size : 4.99 MiB (0%)

Title : Français complet (Tous le film) PGS
Language : French
Default : No

Forced : No

Text #5
ID : 12

Format : PGS
Muxing mode : zlib

Codec ID : S_HDMV/PGS

Codec ID/Info : Picture based subtitle format used on BDs/HD-DVDs

Duration : 2 h 8 min

Bit rate : 11.9 kb/s

Count of elements : 2444

Stream size : 11.0 MiB (0%)

Title : Québécois complet (Tous le film) PGS
Language : French
Default : No

Forced : No

Text #6
ID : 13

Format : PGS
Muxing mode : zlib

Codec ID : S_HDMV/PGS

Codec ID/Info : Picture based subtitle format used on BDs/HD-DVDs

Duration : 1 h 58 min

Bit rate : 13.0 kb/s

Count of elements : 2692

Stream size : 11.0 MiB (0%)

Title : English full (All the movie) PGS
Language : English
Default : No

Forced : No

Text #7
ID : 14

Format : PGS
Muxing mode : zlib

Codec ID : S_HDMV/PGS

Codec ID/Info : Picture based subtitle format used on BDs/HD-DVDs

Duration : 1 h 58 min

Bit rate : 8 438 b/s

Count of elements : 2721

Stream size : 7.15 MiB (0%)

Title : English full (All the movie) 2 PGS
Language : English
Default : No

Forced : No

Text #8
ID : 15

Format : PGS
Muxing mode : zlib

Codec ID : S_HDMV/PGS

Codec ID/Info : Picture based subtitle format used on BDs/HD-DVDs

Duration : 2 h 2 min

Bit rate : 8 440 b/s

Count of elements : 3100

Stream size : 7.37 MiB (0%)

Title : English full SDH PGS
Language : English
Default : No

Forced : No

Text #9
ID : 16

Format : PGS
Muxing mode : zlib

Codec ID : S_HDMV/PGS

Codec ID/Info : Picture based subtitle format used on BDs/HD-DVDs

Duration : 1 h 58 min

Bit rate : 9 796 b/s

Count of elements : 3212

Stream size : 8.30 MiB (0%)

Title : English full SDH 2 PGS
Language : English
Default : No

Forced : No

Menu
00:00:00.000 : :01 – 00:00:00 – fr:Prologue – en:Programme Start

00:00:31.074 : :02 – 00:00:31 – fr:Recrutement fédéral – en:Federal Network Recruitment

00:02:45.250 : :03 – 00:02:45 – fr:Infanterie juvénile – en:Youthful Infantry

00:23:42.506 : :04 – 00:23:42 – fr:Infanterie mobile – en:Mobile Infantry

00:31:23.008 : :05 – 00:31:23 – fr:Académie de l’armée de l’air – en:Air Force Academy

00:37:28.289 : :06 – 00:37:28 – fr:Commandement d’escouade – en:Squad Command

00:44:36.550 : :07 – 00:44:36 – fr:Astéroïde – en:Loose Asteroid

00:48:43.088 : :08 – 00:48:43 – fr:L’attaque – en:The Attack

00:52:37.406 : :09 – 00:52:37 – fr:Flotte contre Infanterie – en:Feet vs. Infantry

00:58:01.480 : :10 – 00:58:01 – fr:Bataille à Klendathu – en:Battle at Klendathu

01:11:03.970 : :11 – 01:11:03 – fr:Les francs-tireurs de Rasczak – en:Rasczak’s Roughnecks

01:18:48.308 : :12 – 01:18:48 – fr:Le repos des guerriers – en:Rest & Relaxation

01:23:01.645 : :13 – 01:23:01 – fr:Planète B Récupération – en:Planet B Retrieval

01:41:22.119 : :14 – 01:41:22 – fr:Recherche du Cerveau – en:Search For The Brain Bug

01:50:54.900 : :15 – 01:50:54 – fr:Le cerveau – en:The Brain Bug

01:55:26.171 : :16 – 01:55:26 – fr:La tournure des événements – en:The Turn of Events

01:59:19.154 : :17 – 01:59:19 – fr:Générique – en:End Credits

Starship Troopers 1997 Bonus Download Torrent Magnet

#Starship #Troopers #Bonus