Stargate SG-1 Season 1 -10 (1 Full Torrent Magnet Download

Download Torrent Stargate SG-1 Season 1 -10 (1 Movie Full in HD Result. Movie Stargate SG-1 Season 1 -10 (1 Torrent Download full. Movie Stargate SG-1 Season 1 -10 (1 torrent Magnet Download Full. Stargate SG-1 Season 1 -10 (1 Full Movie Torrent Download And Magnet Download For your PC And Mobiles. Latest Movie Stargate SG-1 Season 1 -10 (1 Download Link In Bottom.

Torrent And Magnet Links Below

Title: Stargate SG-1

Seasons: 10
Year Of Release: 1997–2007

Genre: Action, Adventure, Drama
Quality: AAC 5.1 ch 224kbp/s 720p.mkv
Encoder: HEVC.x265

Total Size: 76.11 GB

IMDB Link

Repack Info:

Episodes 03 and 04 of Season 04 have been replaced by the correct running time files.

General
Unique ID                                : 312394467840844025698981284219728871793 (0xEB04FC6AFDCE77499C00B9746CEAC171)

Complete name                            : F:. Tony’sTVStargate SG1 Season 1 -10 (1997–2007) HEVC [720p-AAC 5.1] (8.4)Stargate SG-1 Season 07Stargate SG-1 – S07E12 – Evolution (2).mkv

Format                                   : Matroska

Format version                           : Version 4

File size                                : 361 MiB

Duration                                 : 44 min 5 s

Overall bit rate                         : 1 144 kb/s

Writing application                      : Lavf58.29.100

Writing library                          : Lavf58.29.100

ErrorDetectionType                       : Per level 1

Video
ID                                       : 1

Format                                   : HEVC

Format/Info                              : High Efficiency Video Coding

Format profile                           : [email protected]@Main

Codec ID                                 : V_MPEGH/ISO/HEVC

Duration                                 : 44 min 5 s

Bit rate                                 : 601 kb/s

Width                                    : 1 280 pixels

Height                                   : 720 pixels

Display aspect ratio                     : 16:9

Original display aspect ratio            : 16:9

Frame rate mode                          : Constant

Frame rate                               : 23.976 (23976/1000) FPS

Color space                              : YUV

Chroma subsampling                       : 4:2:0

Bit depth                                : 8 bits

Bits/(Pixel*Frame)                       : 0.027

Stream size                              : 189 MiB (53%)

Writing library                          : Lavc58.54.100 hevc_nvenc

Default                                  : Yes

Forced                                   : No

Audio
ID                                       : 2

Format                                   : AAC LC

Format/Info                              : Advanced Audio Codec Low Complexity

Codec ID                                 : A_AAC-2

Duration                                 : 44 min 5 s

Bit rate                                 : 256 kb/s

Channel(s)                               : 6 channels

Channel layout                           : C L R Ls Rs LFE

Sampling rate                            : 48.0 kHz

Frame rate                               : 46.875 FPS (1024 SPF)

Compression mode                         : Lossy

Delay relative to video                  : -63 ms

Stream size                              : 80.7 MiB (22%)

Title                                    : Surround

Writing library                          : Lavc58.54.100 aac

Language                                 : English

Default                                  : Yes

Forced                                   : No

Menu
00:00:00.000                             : :Chapter 1

00:08:35.077                             : :Chapter 2

00:17:35.075                             : :Chapter 3

00:25:56.284                             : :Chapter 4

00:33:40.831                             : :Chapter 5

Stargate SG-1 Season 1 -10 (1Download Torrent Magnet

#Stargate #SG1 #Season