Star.Wars.The.Bad.Batch.S01E0 Full Torrent Magnet Download

Download Torrent Star.Wars.The.Bad.Batch.S01E0 Movie Full in HD Result. Movie Star.Wars.The.Bad.Batch.S01E0 Torrent Download full. Movie Star.Wars.The.Bad.Batch.S01E0 torrent Magnet Download Full. Star.Wars.The.Bad.Batch.S01E0 Full Movie Torrent Download And Magnet Download For your PC And Mobiles. Latest Movie Star.Wars.The.Bad.Batch.S01E0 Download Link In Bottom.

Torrent And Magnet Links Below

Star.Wars.The.Bad.Batch.S01E05.1080p.DSNP.WEBRip.DDP5.1.x264-END

Upload provided by The Galactic Republic
Join us @ https://discord.gg/a4ee7bF and start your journey to find the Trove… good luck

Description:
https://www.imdb.com/title/tt12708542/







MEDIA INFO:
General

Format : Matroska

Format version : Version 4

File size : 1.06 GiB

Duration : 22 min 37 s

Overall bit rate mode : Variable

Overall bit rate : 6 687 kb/s

Encoded date : UTC 2021-05-28 07:04:14

Writing application : mkvmerge v45.0.0 (‘Heaven in Pennies’) 64-bit

Writing library : libebml v1.3.10 + libmatroska v1.5.2

Video

ID : 1

Format : AVC

Format/Info : Advanced Video Codec

Format profile : [email protected]
Format settings : CABAC / 4 Ref Frames

Format settings, CABAC : Yes

Format settings, Reference frames : 4 frames

Codec ID : V_MPEG4/ISO/AVC

Duration : 22 min 37 s

Bit rate mode : Variable

Bit rate : 6 428 kb/s

Maximum bit rate : 12.7 Mb/s

Width : 1 920 pixels

Height : 1 080 pixels

Display aspect ratio : 16:9

Frame rate mode : Constant

Frame rate : 23.976 (24000/1001) FPS

Color space : YUV

Chroma subsampling : 4:2:0

Bit depth : 8 bits

Scan type : Progressive

Bits/(Pixel*Frame) : 0.129

Stream size : 1.02 GiB (96%)

Default : Yes

Forced : No

Color range : Limited

Color primaries : BT.709

Transfer characteristics : BT.709

Matrix coefficients : BT.709

Audio

ID : 2

Format : E-AC-3

Format/Info : Enhanced AC-3

Commercial name : Dolby Digital Plus

Codec ID : A_EAC3

Duration : 22 min 37 s

Bit rate mode : Constant

Bit rate : 256 kb/s

Channel(s) : 6 channels

Channel layout : L R C LFE Ls Rs

Sampling rate : 48.0 kHz

Frame rate : 31.250 FPS (1536 SPF)

Compression mode : Lossy

Stream size : 41.4 MiB (4%)

Title : English

Language : English

Service kind : Complete Main

Default : No

Forced : No

Text #1

ID : 3

Format : UTF-8

Codec ID : S_TEXT/UTF8

Codec ID/Info : UTF-8 Plain Text

Duration : 22 min 0 s

Bit rate : 40 b/s

Count of elements : 208

Stream size : 6.46 KiB (0%)

Title : Dutch

Language : Dutch

Default : No

Forced : No

Text #2

ID : 4

Format : UTF-8

Codec ID : S_TEXT/UTF8

Codec ID/Info : UTF-8 Plain Text

Duration : 22 min 0 s

Bit rate : 45 b/s

Count of elements : 223

Stream size : 7.27 KiB (0%)

Title : Spanish

Language : Spanish

Default : No

Forced : No

Text #3

ID : 5

Format : UTF-8

Codec ID : S_TEXT/UTF8

Codec ID/Info : UTF-8 Plain Text

Duration : 21 min 10 s

Bit rate : 48 b/s

Count of elements : 247

Stream size : 7.54 KiB (0%)

Title : English

Language : English

Default : No

Forced : No

Text #4

ID : 6

Format : UTF-8

Codec ID : S_TEXT/UTF8

Codec ID/Info : UTF-8 Plain Text

Duration : 22 min 4 s

Bit rate : 49 b/s

Count of elements : 241

Stream size : 8.03 KiB (0%)

Title : Portuguese

Language : Portuguese

Default : No

Forced : No

Text #5

ID : 7

Format : UTF-8

Codec ID : S_TEXT/UTF8

Codec ID/Info : UTF-8 Plain Text

Duration : 22 min 0 s

Bit rate : 47 b/s

Count of elements : 239

Stream size : 7.73 KiB (0%)

Title : German

Language : German

Default : No

Forced : No

Text #6

ID : 8

Format : UTF-8

Codec ID : S_TEXT/UTF8

Codec ID/Info : UTF-8 Plain Text

Duration : 22 min 4 s

Bit rate : 46 b/s

Count of elements : 241

Stream size : 7.55 KiB (0%)

Title : Swedish

Language : Swedish

Default : No

Forced : No

Text #7

ID : 9

Format : UTF-8

Codec ID : S_TEXT/UTF8

Codec ID/Info : UTF-8 Plain Text

Duration : 21 min 10 s

Bit rate : 60 b/s

Count of elements : 314

Stream size : 9.31 KiB (0%)

Title : English [SDH]
Language : English

Default : No

Forced : No

Text #8

ID : 10

Format : UTF-8

Codec ID : S_TEXT/UTF8

Codec ID/Info : UTF-8 Plain Text

Duration : 22 min 0 s

Bit rate : 48 b/s

Count of elements : 240

Stream size : 7.82 KiB (0%)

Title : French

Language : French

Default : No

Forced : No

Text #9

ID : 11

Format : UTF-8

Codec ID : S_TEXT/UTF8

Codec ID/Info : UTF-8 Plain Text

Duration : 22 min 0 s

Bit rate : 46 b/s

Count of elements : 233

Stream size : 7.52 KiB (0%)

Title : Brazilian Portuguese

Language : Portuguese

Default : No

Forced : No

Text #10

ID : 12

Format : UTF-8

Codec ID : S_TEXT/UTF8

Codec ID/Info : UTF-8 Plain Text

Duration : 22 min 4 s

Bit rate : 47 b/s

Count of elements : 239

Stream size : 7.76 KiB (0%)

Title : Danish

Language : Danish

Default : No

Forced : No

Text #11

ID : 13

Format : UTF-8

Codec ID : S_TEXT/UTF8

Codec ID/Info : UTF-8 Plain Text

Duration : 22 min 14 s

Bit rate : 45 b/s

Count of elements : 241

Stream size : 7.40 KiB (0%)

Title : Polish

Language : Polish

Default : No

Forced : No

Text #12

ID : 14

Format : UTF-8

Codec ID : S_TEXT/UTF8

Codec ID/Info : UTF-8 Plain Text

Duration : 22 min 0 s

Bit rate : 46 b/s

Count of elements : 233

Stream size : 7.50 KiB (0%)

Title : Italian

Language : Italian

Default : No

Forced : No

Text #13

ID : 15

Format : UTF-8

Codec ID : S_TEXT/UTF8

Codec ID/Info : UTF-8 Plain Text

Duration : 22 min 4 s

Bit rate : 46 b/s

Count of elements : 241

Stream size : 7.56 KiB (0%)

Title : Norwegian

Language : Norwegian

Default : No

Forced : No

Text #14

ID : 16

Format : UTF-8

Codec ID : S_TEXT/UTF8

Codec ID/Info : UTF-8 Plain Text

Duration : 22 min 0 s

Bit rate : 42 b/s

Count of elements : 238

Stream size : 6.88 KiB (0%)

Title : Finnish

Language : Finnish

Default : No

Forced : No

Text #15

ID : 17

Format : UTF-8

Codec ID : S_TEXT/UTF8

Codec ID/Info : UTF-8 Plain Text

Duration : 22 min 4 s

Bit rate : 48 b/s

Count of elements : 219

Stream size : 7.82 KiB (0%)

Title : European Spanish

Language : Spanish

Default : No

Forced : No

Star.Wars.The.Bad.Batch.S01E0Download Torrent Magnet

#StarWarsTheBadBatchS01E0