Star Wars The Bad Batch S01E0 Full Torrent Magnet Download

Download Torrent Star Wars The Bad Batch S01E0 Movie Full in HD Result. Movie Star Wars The Bad Batch S01E0 Torrent Download full. Movie Star Wars The Bad Batch S01E0 torrent Magnet Download Full. Star Wars The Bad Batch S01E0 Full Movie Torrent Download And Magnet Download For your PC And Mobiles. Latest Movie Star Wars The Bad Batch S01E0 Download Link In Bottom.

Torrent And Magnet Links Below

Star Wars The Bad Batch S01E01 Aftermath 480p WEBRip x264

Video
ID : 1
Format : AVC
Format/Info : Advanced Video Codec
Format profile : [email protected]
Format settings : CABAC / 4 Ref Frames
Format settings, CABAC : Yes
Format settings, Reference frames : 4 frames
Codec ID : V_MPEG4/ISO/AVC
Duration : 1 h 11 min
Bit rate : 3 079 kb/s
Width : 854 pixels
Height : 480 pixels
Display aspect ratio : 16:9
Frame rate mode : Variable
Frame rate : 23.976 FPS
Color space : YUV
Chroma subsampling : 4:2:0
Bit depth : 8 bits
Scan type : Progressive
Bits/(Pixel*Frame) : 0.313
Stream size : 1.53 GiB
Writing library : x264 core 152 r19 ba24899
Encoding settings : cabac=1 / ref=3 / deblock=1:0:0 / analyse=0x3:0x113 / me=umh / subme=8 / psy=1 / psy_rd=1.00:0.00 / mixed_ref=1 / me_range=16 / chroma_me=1 / trellis=1 / 8x8dct=1 / cqm=0 / deadzone=21,11 / fast_pskip=0 / chroma_qp_offset=-2 / threads=8 / lookahead_threads=2 / sliced_threads=0 / nr=0 / decimate=1 / interlaced=0 / bluray_compat=0 / constrained_intra=0 / bframes=8 / b_pyramid=2 / b_adapt=1 / b_bias=0 / direct=1 / weightb=1 / open_gop=0 / weightp=2 / keyint=250 / keyint_min=23 / scenecut=40 / intra_refresh=0 / rc_lookahead=40 / rc=crf / mbtree=1 / crf=25.0 / qcomp=0.60 / qpmin=0 / qpmax=69 / qpstep=4 / vbv_maxrate=10000 / vbv_bufsize=10000 / crf_max=0.0 / nal_hrd=none / filler=0 / ip_ratio=1.40 / aq=1:1.00
Default : Yes
Forced : No

Audio
ID : 2
Format : AAC LC
Format/Info : Advanced Audio Codec Low Complexity
Codec ID : A_AAC-2
Duration : 1 h 11 min
Bit rate : 256 kb/s
Channel(s) : 2 channels
Channel layout : L R
Sampling rate : 48.0 kHz
Frame rate : 46.875 FPS (1024 SPF)
Compression mode : Lossy
Stream size : 130 MiB (53%)
Writing library : Lavc57.89.100 aac
Language : English
Default : No
Forced : No

Text
ID : 3
Format : ASS
Codec ID : S_TEXT/ASS
Codec ID/Info : Advanced Sub Station Alpha
Duration : 1 h 10 min
Bit rate : 55 b/s
Count of elements : 893
Compression mode : Lossless
Stream size : 28.4 KiB (0%)
Title : English [CC]
Writing library : Lavc57.89.100 ssa
Language : English
Default : Yes
Forced : No

Star Wars The Bad Batch S01E0Download Torrent Magnet

#Star #Wars #Bad #Batch #S01E0