Star.Wars.Episode.VIII.The.La Full Torrent Magnet Download

Download Torrent Star.Wars.Episode.VIII.The.La Movie Full in HD Result. Movie Star.Wars.Episode.VIII.The.La Torrent Download full. Movie Star.Wars.Episode.VIII.The.La torrent Magnet Download Full. Star.Wars.Episode.VIII.The.La Full Movie Torrent Download And Magnet Download For your PC And Mobiles. Latest Movie Star.Wars.Episode.VIII.The.La Download Link In Bottom.

Torrent And Magnet Links Below

Star.Wars.Episode.VIII.The.Last.Jedi.2017.BRRip.XviD.B4ND1T69

Director: Rian Johnson

Writers: Rian Johnson, George Lucas (based on characters created by)

Stars: Daisy Ridley, John Boyega, Mark Hamill

Plot/Story:

Rey develops her newly discovered abilities with the guidance of Luke Skywalker, who is unsettled by the strength of her powers. Meanwhile, the Resistance prepares for battle with the First Order.

General

Complete name : Star.Wars.Episode.VIII.The.Last.Jedi.2017.BRRip.XviD.B4ND1T69.avi

Format : AVI

Format/Info : Audio Video Interleave

File size : 1.47 GiB

Duration : 2 h 31 min

Overall bit rate : 1 385 kb/s

Subtitles : Yes…Hardcoded for non-English parts + file included(HI)

Video

ID : 0

Format : MPEG-4 Visual

Format profile : Advanced [email protected]
Format settings, BVOP : 2

Format settings, QPel : No

Format settings, GMC : No warppoints

Format settings, Matrix : Default (H.263)

Codec ID : XVID

Codec ID/Hint : XviD

Duration : 2 h 31 min

Bit rate : 1 244 kb/s

Width : 720 pixels

Height : 304 pixels

Display aspect ratio : 2.35:1

Frame rate : 24.390 FPS

Color space : YUV

Chroma subsampling : 4:2:0

Bit depth : 8 bits

Scan type : Progressive

Compression mode : Lossy

Bits/(Pixel*Frame) : 0.233

Stream size : 1.32 GiB (90%)

Writing library : XviD 64

Audio

ID : 1

Format : MPEG Audio

Format version : Version 1

Format profile : Layer 3

Codec ID : 55

Codec ID/Hint : MP3

Duration : 2 h 31 min

Bit rate mode : Constant

Bit rate : 128 kb/s

Channel(s) : 2 channels

Sampling rate : 48.0 kHz

Compression mode : Lossy

Stream size : 139 MiB (9%)

Alignment : Aligned on interleaves

Interleave, duration : 24 ms (0.59 video frame)

Screenshots:









Please Seed For As Long As Possible

Or At Least 1:1 Ratio…Thanks

Enjoy Peeps

Star.Wars.Episode.VIII.The.LaDownload Torrent Magnet

#StarWarsEpisodeVIIITheLa