Star.Wars.Episode.VII.The.For Full Torrent Magnet Download

Download Torrent Star.Wars.Episode.VII.The.For Movie Full in HD Result. Movie Star.Wars.Episode.VII.The.For Torrent Download full. Movie Star.Wars.Episode.VII.The.For torrent Magnet Download Full. Star.Wars.Episode.VII.The.For Full Movie Torrent Download And Magnet Download For your PC And Mobiles. Latest Movie Star.Wars.Episode.VII.The.For Download Link In Bottom.

Torrent And Magnet Links Below

Star.Wars.Episode.VII.The.Force.Awakens.2015.BRRip.XviD.B4ND1T69

Director: J.J. Abrams

Writers: Lawrence Kasdan, J.J. Abrams

Stars: Daisy Ridley, John Boyega, Oscar Isaac

Plot/Story:

As a new threat to the galaxy rises, Rey, a desert scavenger, and Finn, an ex-stormtrooper, must join Han Solo and Chewbacca to search for the one hope of restoring peace.

General

Complete name : Star.Wars.Episode.VII.The.Force.Awakens.2015.BRRip.XviD.B4ND1T69.avi

Format : AVI

Format/Info : Audio Video Interleave

File size : 1.56 GiB

Duration : 2 h 18 min

Overall bit rate : 1 621 kb/s

Subtitles : Yes…Hardcoded for non-English parts + file included(HI)

Video

ID : 0

Format : MPEG-4 Visual

Format profile : Advanced [email protected]
Format settings, BVOP : 2

Format settings, QPel : No

Format settings, GMC : No warppoints

Format settings, Matrix : Default (H.263)

Codec ID : XVID

Codec ID/Hint : XviD

Duration : 2 h 18 min

Bit rate : 1 480 kb/s

Width : 720 pixels

Height : 304 pixels

Display aspect ratio : 2.35:1

Frame rate : 23.976 (24000/1001) FPS

Color space : YUV

Chroma subsampling : 4:2:0

Bit depth : 8 bits

Scan type : Progressive

Compression mode : Lossy

Bits/(Pixel*Frame) : 0.282

Stream size : 1.43 GiB (91%)

Writing library : XviD 64

Audio

ID : 1

Format : MPEG Audio

Format version : Version 1

Format profile : Layer 3

Codec ID : 55

Codec ID/Hint : MP3

Duration : 2 h 18 min

Bit rate mode : Constant

Bit rate : 128 kb/s

Channel(s) : 2 channels

Sampling rate : 48.0 kHz

Compression mode : Lossy

Stream size : 126 MiB (8%)

Alignment : Aligned on interleaves

Interleave, duration : 24 ms (0.58 video frame)

Screenshots:









Please Seed For As Long As Possible

Or At Least 1:1 Ratio…Thanks

Enjoy Peeps

Star.Wars.Episode.VII.The.ForDownload Torrent Magnet

#StarWarsEpisodeVIITheFor