Star.Wars.Episode.VI.Return.o Full Torrent Magnet Download

Download Torrent Star.Wars.Episode.VI.Return.o Movie Full in HD Result. Movie Star.Wars.Episode.VI.Return.o Torrent Download full. Movie Star.Wars.Episode.VI.Return.o torrent Magnet Download Full. Star.Wars.Episode.VI.Return.o Full Movie Torrent Download And Magnet Download For your PC And Mobiles. Latest Movie Star.Wars.Episode.VI.Return.o Download Link In Bottom.

Torrent And Magnet Links Below

Star.Wars.Episode.VI.Return.of.the.Jedi.1983.REMASTERED.BRRip.XviD.B4ND1T69

Director: Richard Marquand

Writers: Lawrence Kasdan (screenplay by), George Lucas (screenplay by)

Stars: Mark Hamill, Harrison Ford, Carrie Fisher

Plot/Story:

After a daring mission to rescue Han Solo from Jabba the Hutt, the Rebels dispatch to Endor to destroy the second Death Star. Meanwhile, Luke struggles to help Darth Vader back from the dark side without falling into the Emperor’s trap.

General

Complete name : Star.Wars.Episode.VI.Return.of.the.Jedi.1983.REMASTERED.BRRip.XviD.B4ND1T69.avi

Format : AVI

Format/Info : Audio Video Interleave

File size : 1.64 GiB

Duration : 2 h 14 min

Overall bit rate : 1 741 kb/s

Subtitles : Yes…Hardcoded for non-English parts + file included(HI)

Video

ID : 0

Format : MPEG-4 Visual

Format profile : Advanced [email protected]
Format settings, BVOP : 2

Format settings, QPel : No

Format settings, GMC : No warppoints

Format settings, Matrix : Default (H.263)

Codec ID : XVID

Codec ID/Hint : XviD

Duration : 2 h 14 min

Bit rate : 1 600 kb/s

Width : 720 pixels

Height : 304 pixels

Display aspect ratio : 2.35:1

Frame rate : 23.976 (24000/1001) FPS

Color space : YUV

Chroma subsampling : 4:2:0

Bit depth : 8 bits

Scan type : Progressive

Compression mode : Lossy

Bits/(Pixel*Frame) : 0.305

Stream size : 1.51 GiB (92%)

Writing library : XviD 64

Audio

ID : 1

Format : MPEG Audio

Format version : Version 1

Format profile : Layer 3

Codec ID : 55

Codec ID/Hint : MP3

Duration : 2 h 14 min

Bit rate mode : Constant

Bit rate : 128 kb/s

Channel(s) : 2 channels

Sampling rate : 48.0 kHz

Compression mode : Lossy

Stream size : 123 MiB (7%)

Alignment : Aligned on interleaves

Interleave, duration : 24 ms (0.58 video frame)

Screenshots:









Please Seed For As Long As Possible

Or At Least 1:1 Ratio…Thanks

Enjoy Peeps

Star.Wars.Episode.VI.Return.oDownload Torrent Magnet

#StarWarsEpisodeVIReturno