Star.Wars.Episode.IV.A.New.Ho Full Torrent Magnet Download

Download Torrent Star.Wars.Episode.IV.A.New.Ho Movie Full in HD Result. Movie Star.Wars.Episode.IV.A.New.Ho Torrent Download full. Movie Star.Wars.Episode.IV.A.New.Ho torrent Magnet Download Full. Star.Wars.Episode.IV.A.New.Ho Full Movie Torrent Download And Magnet Download For your PC And Mobiles. Latest Movie Star.Wars.Episode.IV.A.New.Ho Download Link In Bottom.

Torrent And Magnet Links Below

Star.Wars.Episode.IV.A.New.Hope.1977.REMASTERED.BRRip.XviD.B4ND1T69

Director: George Lucas

Writer: George Lucas

Stars: Mark Hamill, Harrison Ford, Carrie Fisher

Plot/Story:

Luke Skywalker joins forces with a Jedi Knight, a cocky pilot, a Wookiee and two droids to save the galaxy from the Empire’s world-destroying battle station, while also attempting to rescue Princess Leia from the mysterious Darth Vader.

General

Complete name : Star.Wars.Episode.IV.A.New.Hope.1977.REMASTERED.BRRip.XviD.B4ND1T69.avi

Format : AVI

Format/Info : Audio Video Interleave

File size : 1.34 GiB

Duration : 2 h 4 min

Overall bit rate : 1 539 kb/s

Subtitles : Yes…Hardcoded for non-English parts + file included(HI)

Video

ID : 0

Format : MPEG-4 Visual

Format profile : Advanced [email protected]
Format settings, BVOP : 2

Format settings, QPel : No

Format settings, GMC : No warppoints

Format settings, Matrix : Default (H.263)

Codec ID : XVID

Codec ID/Hint : XviD

Duration : 2 h 4 min

Bit rate : 1 398 kb/s

Width : 720 pixels

Height : 304 pixels

Display aspect ratio : 2.35:1

Frame rate : 23.976 (24000/1001) FPS

Color space : YUV

Chroma subsampling : 4:2:0

Bit depth : 8 bits

Scan type : Progressive

Compression mode : Lossy

Bits/(Pixel*Frame) : 0.266

Stream size : 1.22 GiB (91%)

Writing library : XviD 64

Audio

ID : 1

Format : MPEG Audio

Format version : Version 1

Format profile : Layer 3

Codec ID : 55

Codec ID/Hint : MP3

Duration : 2 h 4 min

Bit rate mode : Constant

Bit rate : 128 kb/s

Channel(s) : 2 channels

Sampling rate : 48.0 kHz

Compression mode : Lossy

Stream size : 114 MiB (8%)

Alignment : Aligned on interleaves

Interleave, duration : 24 ms (0.58 video frame)

Screenshots:









Please Seed For As Long As Possible

Or At Least 1:1 Ratio…Thanks

Enjoy Peeps

Star.Wars.Episode.IV.A.New.HoDownload Torrent Magnet

#StarWarsEpisodeIVANewHo