Sphere 1998 BR EAC3 VFF VFQ E Full Torrent Magnet Download

Download Torrent Sphere 1998 BR EAC3 VFF VFQ E Movie Full in HD Result. Movie Sphere 1998 BR EAC3 VFF VFQ E Torrent Download full. Movie Sphere 1998 BR EAC3 VFF VFQ E torrent Magnet Download Full. Sphere 1998 BR EAC3 VFF VFQ E Full Movie Torrent Download And Magnet Download For your PC And Mobiles. Latest Movie Sphere 1998 BR EAC3 VFF VFQ E Download Link In Bottom.

Torrent And Magnet Links Below

______________________________________________________________________________________________________________
Sphere 1998
Bluray · 1080p x265 10bits · DD+ 5.1 VFF VFQ ENG
¯¯¯¯¯¯¯¯¯¯¯¯¯¯¯¯¯¯¯¯¯¯¯¯¯¯¯¯¯¯¯¯¯¯¯¯¯¯¯¯¯¯¯¯¯¯¯¯¯¯¯¯¯¯¯¯¯¯¯¯¯¯¯¯¯¯¯¯¯¯¯¯¯¯¯¯¯¯¯¯

Year : 1998

Country : United States

Original and English Title : Sphere

French Title : Sphère

Director : Barry Levinson
Music from : Elliot Goldenthal

Acteurs : Dustin Hoffman, Sharon Stone, Samuel L. Jackson, Peter Coyote, Queen Latifah, Liev Schreiber, Marga Gomez
Genre : Sci-Fi, Thriller, Mystery

Certificate : All public
Budget : 80 000 000 $ · Recipe : 70 297 851 $ · ratio : 88 %

Link : Allociné 2,4 /5 · IMDB 6,1 /10 · TMDB 60 % · SensCritique 5,5 /10 · Wiki · Bande Annonce

French Plot
Une équipe composée du psychologue Norman Goodman , de son ancienne compagne, la biochimiste Beth Halperin , du mathématicien Harry Adams et de l’astrophysicien Ted Fielding est dépêchée en grand secret sur un batiment de guerre. Cette équipe pluridisciplinaire est préparée pour communiquer avec d’éventuels extraterrestres. La marine vient en effet de repérer, gisant par trois cent mètres de fond, un immense vaisseau spatial d’où émanent de mystèrieux signaux.


If you enjoy and wish to support, please stay in seeding

Technical Details
¯¯¯¯¯¯¯¯¯¯¯¯¯¯¯¯¯¯¯¯¯¯¯¯¯¯¯¯¯¯¯¯¯¯¯¯¯¯¯¯¯¯¯¯¯¯¯¯¯¯¯¯¯¯¯¯¯¯¯¯¯¯¯¯¯¯¯¯¯¯¯¯¯¯¯¯¯¯¯¯¯¯¯¯¯¯¯¯¯¯¯¯¯¯¯¯¯¯¯¯
Media
Matroska 4,05 Gio 2 h14 mn 4320 Kbps

Video
HEVC/H265 1920 x800 @23.976 [email protected]@Main 10 bits 3201 Kbps VerySlow qp21,69
Audio
True French 5.1 EAC3 448 Kbps 48KHz 16bits

Quebec French 2.0 AC3 192 Kbps 48KHz 16bits (original)

English (OV) 5.1 EAC3 448 Kbps 48KHz 16bits

Subtitles
True French forced SRT
True French full SRT
True French full PGS
English full SDH PGS
Chapters
International, True French, English

Screenshot

Origin
Bluray : Video VC-1 1080p 23552 Kbps, VFF 5.1 AC3 640 Kbps, VFQ 2.0 AC3 192 Kbps, Anglais 5.1 TrueHD 1603 Kbps

NFO
¯¯¯¯¯¯¯¯¯¯¯¯¯¯¯¯¯¯¯¯¯¯¯¯¯¯¯¯¯¯¯¯¯¯¯¯¯¯¯¯¯¯¯¯¯¯¯¯¯¯¯¯¯¯¯¯¯¯¯¯¯¯¯¯¯¯¯¯¯¯¯¯¯¯¯¯¯¯¯¯¯¯¯¯¯¯¯¯¯¯¯¯¯¯¯¯¯¯¯¯

General
Format : Matroska
Format version : Version 4

File size : 4.05 GiB
Duration : 2 h 14 min

Overall bit rate : 4 320 kb/s

Movie name : Sphère (Sphere) 1998 de Barry Levinson avec Dustin Hoffman, Sharon Stone, Samuel L. Jackson, Peter Coyote, Queen Latifah, Liev Schreiber, Marga Gomez. Tout public (allocine=16650,imdb=tt0120184) T0M
Encoded date : UTC 2019-01-18 17:58:01

Writing application : mkvmerge v8.0.0 (‘Til The Day That I Die’) 64bit

Writing library : libebml v1.3.1 + libmatroska v1.4.2

Cover : Yes

Attachments : Cover.jpg

Video
ID : 1

Format : HEVC
Format/Info : High Efficiency Video Coding

Format profile : Main [email protected]@Main

Codec ID : V_MPEGH/ISO/HEVC

Duration : 2 h 14 min

Bit rate : 3 201 kb/s

Width : 1 920 pixels

Height : 800 pixels

Display aspect ratio : 2.40:1

Frame rate mode : Constant

Frame rate : 23.976 (24000/1001) FPS

Color space : YUV

Chroma subsampling : 4:2:0

Bit depth : 10 bits

Bits/(Pixel*Frame) : 0.087

Stream size : 3.00 GiB (74%)

Title : Video HEVC 1920×800 @23.976 x265 [email protected]@Main 10bits 3200kbps 2pass veryslow 2557mn
Writing library : x265 2.6:[Windows][GCC 7.3.0][64 bit] 10bit

Encoding settings : cpuid=1173503 / frame-threads=3 / numa-pools=8 / wpp / no-pmode / no-pme / no-psnr / no-ssim / log-level=2 / input-csp=1 / input-res=1920×800 / interlace=0 / total-frames=0 / level-idc=0 / high-tier=1 / uhd-bd=0 / ref=5 / no-allow-non-conformance / no-repeat-headers / annexb / no-aud / no-hrd / info / hash=0 / no-temporal-layers / open-gop / min-keyint=24 / keyint=240 / bframes=8 / b-adapt=2 / b-pyramid / bframe-bias=0 / rc-lookahead=120 / lookahead-slices=0 / scenecut=40 / no-intra-refresh / ctu=64 / min-cu-size=8 / rect / amp / max-tu-size=32 / tu-inter-depth=3 / tu-intra-depth=3 / limit-tu=4 / rdoq-level=2 / dynamic-rd=0.00 / no-ssim-rd / signhide / no-tskip / nr-intra=0 / nr-inter=0 / no-constrained-intra / strong-intra-smoothing / max-merge=4 / limit-refs=1 / limit-modes / me=3 / subme=4 / merange=57 / temporal-mvp / weightp / weightb / no-analyze-src-pics / deblock=0:0 / sao / no-sao-non-deblock / rd=6 / no-early-skip / rskip / no-fast-intra / no-tskip-fast / no-cu-lossless / b-intra / no-splitrd-skip / rdpenalty=0 / psy-rd=2.00 / psy-rdoq=1.00 / no-rd-refine / analysis-reuse-mode=0 / no-lossless / cbqpoffs=0 / crqpoffs=0 / rc=abr / bitrate=3200 / qcomp=0.60 / qpstep=4 / stats-write=0 / stats-Read=2 / cplxblur=20.0 / qblur=0.5 / ipratio=1.40 / pbratio=1.30 / aq-mode=1 / aq-strength=1.00 / cutree / zone-count=0 / no-strict-cbr / qg-size=32 / no-rc-grain / qpmax=69 / qpmin=0 / no-const-vbv / sar=1 / overscan=0 / videoformat=5 / range=0 / colorprim=1 / transfer=1 / colormatrix=1 / chromaloc=0 / display-window=0 / max-cll=0,0 / min-luma=0 / max-luma=1023 / log2-max-poc-lsb=8 / vui-timing-info / vui-hrd-info / slices=1 / no-opt-qp-pps / no-opt-ref-list-length-pps / no-multi-pass-opt-rps / scenecut-bias=0.05 / no-opt-cu-delta-qp / no-aq-motion / no-hdr / no-hdr-opt / no-dhdr10-opt / analysis-reuse-level=5 / scale-factor=0 / refine-intra=0 / refine-inter=0 / refine-mv=0 / no-limit-sao / ctu-info=0 / no-lowpass-dct / refine-mv-type=0 / copy-pic=1

Default : Yes

Forced : No

Color range : Limited

Color primaries : BT.709

Transfer characteristics : BT.709

Matrix coefficients : BT.709

Audio #1
ID : 2

Format : E-AC-3
Format/Info : Enhanced AC-3

Commercial name : Dolby Digital Plus

Codec ID : A_EAC3

Duration : 2 h 14 min

Bit rate mode : Constant

Bit rate : 448 kb/s

Channel(s) : 6 channels

Channel layout : L R C LFE Ls Rs

Sampling rate : 48.0 kHz

Frame rate : 31.250 FPS (1536 SPF)

Compression mode : Lossy

Delay relative to video : 22 ms

Stream size : 430 MiB (10%)

Title : Français 5.1 EAC3 448kbps 48khz 16bits
Language : French
Service kind : Complete Main

Default : Yes

Forced : No

Audio #2
ID : 3

Format : AC-3
Format/Info : Audio Coding 3

Commercial name : Dolby Digital

Codec ID : A_AC3

Duration : 2 h 14 min

Bit rate mode : Constant

Bit rate : 192 kb/s

Channel(s) : 2 channels

Channel layout : L R

Sampling rate : 48.0 kHz

Frame rate : 31.250 FPS (1536 SPF)

Bit depth : 16 bits

Compression mode : Lossy

Delay relative to video : 42 ms

Stream size : 184 MiB (4%)

Title : Québécois 2.0 AC3 192kbps 48khz 16bits (original)
Language : French
Service kind : Complete Main

Default : No

Forced : No

Audio #3
ID : 4

Format : E-AC-3
Format/Info : Enhanced AC-3

Commercial name : Dolby Digital Plus

Codec ID : A_EAC3

Duration : 2 h 14 min

Bit rate mode : Constant

Bit rate : 448 kb/s

Channel(s) : 6 channels

Channel layout : L R C LFE Ls Rs

Sampling rate : 48.0 kHz

Frame rate : 31.250 FPS (1536 SPF)

Compression mode : Lossy

Delay relative to video : 42 ms

Stream size : 430 MiB (10%)

Title : English 5.1 EAC3 448kbps 48khz 16bits
Language : English
Service kind : Complete Main

Default : No

Forced : No

Text #1
ID : 5

Format : UTF-8
Codec ID : S_TEXT/UTF8

Codec ID/Info : UTF-8 Plain Text

Duration : 2 h 14 min

Bit rate : 1 b/s

Count of elements : 62

Stream size : 1.64 KiB (0%)

Title : Français forcé (Passages)
Language : French
Default : Yes

Forced : Yes

Text #2
ID : 6

Format : UTF-8
Codec ID : S_TEXT/UTF8

Codec ID/Info : UTF-8 Plain Text

Duration : 2 h 14 min

Bit rate : 51 b/s

Count of elements : 1757

Stream size : 50.4 KiB (0%)

Title : Français complet (Tous le film)
Language : French
Default : No

Forced : No

Text #3
ID : 7

Format : PGS
Muxing mode : zlib

Codec ID : S_HDMV/PGS

Codec ID/Info : Picture based subtitle format used on BDs/HD-DVDs

Duration : 2 h 10 min

Bit rate : 13.1 kb/s

Count of elements : 3510

Stream size : 12.3 MiB (0%)

Title : Français complet (Tous le film) PGS
Language : French
Default : No

Forced : No

Text #4
ID : 8

Format : PGS
Muxing mode : zlib

Codec ID : S_HDMV/PGS

Codec ID/Info : Picture based subtitle format used on BDs/HD-DVDs

Duration : 2 h 10 min

Bit rate : 17.4 kb/s

Count of elements : 3774

Stream size : 16.2 MiB (0%)

Title : English full SDH PGS
Language : English
Default : No

Forced : No

Menu
00:00:00.000 : :01 – 00:00:00 – fr:Générique – en:Spherical Credits

00:02:52.755 : :02 – 00:02:52 – fr:En surface – en:All for a crash? The Surface

00:04:47.120 : :03 – 00:04:47 – fr:Tout dans son rapport – en:All in his report

00:07:20.815 : :04 – 00:07:20 – fr:Équipe de contact humain – en:Human contact team

00:10:08.065 : :05 – 00:10:08 – fr:Les grands fonds – en:Sounded good. The Deep

00:13:25.054 : :06 – 00:13:25 – fr:Comme à la maison – en:Home away from home

00:18:28.148 : :07 – 00:18:28 – fr:L’engin spatial – en:A door we shouldn’t open? The Spacecraft

00:20:14.421 : :08 – 00:20:14 – fr:Au cœur des ténèbres – en:Heart of darkness

00:24:32.471 : :09 – 00:24:32 – fr:Invité à l’intérieur – en:Invited inside

00:27:04.289 : :10 – 00:27:04 – fr:Mots humains et restes – en:Human words and remains

00:30:23.780 : :11 – 00:30:23 – fr:Événement d’entrée inconnu – en:Unknown Entry Event

00:32:40.750 : :12 – 00:32:40 – fr:La sphère – en:The sphere. The Analysis

00:34:39.285 : :13 – 00:34:39 – fr:Avertissement de tempête – en:Storm warning

00:37:25.868 : :14 – 00:37:25 – fr:La sphère – en:Lagically we died. The Sphere

00:39:49.595 : :15 – 00:39:49 – fr:Le voyage de Harry – en:Harry’s journey

00:42:33.300 : :16 – 00:42:33 – fr:La puissance – en:Norman’s pursuit. The Power

00:46:14.188 : :17 – 00:46:14 – fr:Attaque de méduses – en:Jellyfish attack

00:50:44.499 : :18 – 00:50:44 – fr:Pas la création de dieu – en:Not God’s creation

00:52:29.354 : :19 – 00:52:29 – fr:Vraiment réveillé – en:Really awake

00:57:09.259 : :20 – 00:57:09 – fr:Premier échange – en:Competitors. The First Exchange

00:58:29.756 : :21 – 00:58:29 – fr:Le monstre – en:Definitely not alone. The Monster

01:04:11.806 : :22 – 01:04:11 – fr:Les allées et venues d’Edmunds – en:Edmunds’ whereabouts

01:07:30.171 : :23 – 01:07:30 – fr:Postes de combat – en:Approaching danger. Battle Stations

01:09:45.598 : :24 – 01:09:45 – fr:Jerry veut parler – en:Jerry wants to talk

01:11:51.181 : :25 – 01:11:51 – fr:Sous pression – en:Under pressure

01:15:41.954 : :26 – 01:15:41 – fr:Décision de haute voltage – en:High-voltgage decision

01:17:33.023 : :27 – 01:17:33 – fr:Feu ! – en:Fire!

01:20:56.393 : :28 – 01:20:56 – fr:Le pouvoir d’arrêter – en:The power to stop

01:23:28.461 : :29 – 01:23:28 – fr:Mission Minisub – en:Minisub mission

01:26:42.655 : :30 – 01:26:42 – fr:La terreur de Norman – en:Norman’s terror

01:28:38.938 : :31 – 01:28:38 – fr:Un danger pour tous – en:A danger to all

01:34:18.861 : :32 – 01:34:18 – fr:Incomplet – en:Fully booked

01:35:50.077 : :33 – 01:35:50 – fr:Le vrai nom de Jerry – en:Jerry’s real name. Futher Analysis

01:38:50.257 : :34 – 01:38:50 – fr:Des rêves réalisés ? – en:Dreams made real?

01:41:51.063 : :35 – 01:41:51 – fr:Sommeil profond – en:Deep sleep. good news

01:43:59.691 : :36 – 01:43:59 – fr:Serpent de mer – en:Sea snake close encounter

01:46:06.276 : :37 – 01:46:06 – fr:Peurs mortelles – en:Deadly fears

01:52:37.041 : :38 – 01:52:37 – fr:Répéter le passé – en:Repeating the past

01:57:23.077 : :39 – 01:57:23 – fr:Le bouton caché – en:The hidden button

02:01:19.355 : :40 – 02:01:19 – fr:Détonation – en:Detonation. Decompression Chamber

02:02:59.080 : :41 – 02:02:59 – fr:Le pouvoir d’oublier – en:The power to forget

02:07:05.242 : :42 – 02:07:05 – fr:Retour au cosmos – en:Back to the cosmos

02:10:32.825 : :43 – 02:10:32 – fr:Générique final – en:End Credits

Sphere 1998 BR EAC3 VFF VFQ EDownload Torrent Magnet

#Sphere #EAC3 #VFF #VFQ