Spectre.2015.UHD.BluRay.HDR.2 Full Torrent Magnet Download

Download Torrent Spectre.2015.UHD.BluRay.HDR.2 Movie Full in HD Result. Movie Spectre.2015.UHD.BluRay.HDR.2 Torrent Download full. Movie Spectre.2015.UHD.BluRay.HDR.2 torrent Magnet Download Full. Spectre.2015.UHD.BluRay.HDR.2 Full Movie Torrent Download And Magnet Download For your PC And Mobiles. Latest Movie Spectre.2015.UHD.BluRay.HDR.2 Download Link In Bottom.

Torrent And Magnet Links Below

DATI – TRAMA

Titolo Originale: Spectre

Anno: 2015

Genere: Action, Adventure, Thriller

Durata: 148

Nazione: United Kingdom, United States

Regista: Sam Mendes

Sceneggiatura: John Logan, Neal Purvis, Robert Wade

Produzione: B24, Columbia Pictures, Danjaq, Eon Productions, Metro-Goldwyn-Mayer (MGM)

Cast: Daniel Craig, Christoph Waltz, Léa Seydoux, Ralph Fiennes, Monica Bellucci, Ben Whishaw, Naomie Harris, Dave Bautista, Andrew Scott, Rory Kinnear, Jesper Christensen, Alessandro Cremona, Stephanie Sigman, Tenoch Huerta, Adriana Paz, Domenico Fortunato, Marco Zingaro, Stefano Elfi DiClaudia, Ian Bonar, Tam Williams

SPECTRE è il 24esimo film di James Bond.Un misterioso messaggio riguardante il proprio passato convince James Bond a partire verso una nuova missione in Messico, per poi raggiungere Roma, dove incontra Lucia Sciarra (Monica Bellucci), la splendida e intoccabile vedova di un noto criminale. Bond si infiltra in una riunione segreto e scopre l’esistenza di una sinistra organizzazione nota col nome di SPECTRE. Nel frattempo, a Londra, Max Denbigh (Andrew Scott), il nuovo capo del Centro per la Sicurezza Nazionale, indaga sulla missione di Bond e mette in dubbio il valore della sezione MI6 guidato da M (Ralph Fiennes). Bond di nascosto coinvolge Moneypenny (Naomie Harris) e Q (Ben Whishaw) per aiutarlo a trovare Madeleine Swann (Léa Seydoux), la figlia del suo vecchio nemico Mr White (Jesper Christensen), che potrebbe avere la soluzione per risolvere la trama di SPECTRE. Da figlia di un assassino, la ragazza riesce a comprendere Bond meglio di chiunque altro. Mentre Bond si inoltra nel cuore di SPECTRE, scopre l’esistenza di un legame raccapricciante tra se stesso e il nemico da lui inseguito, interpretato da Christoph Waltz.

IMMAGINI



REPORT

General

Unique ID : 33674671685472631872271021084101898388 (0x1955817FD2375938F9CA4662BD88F094)

Complete name : Spectre.2015.UHD.BluRay.HDR.2160p.DTS.iTA.ENG.Subs.x265-BJL.mkv

Format : Matroska

Format version : Version 4

File size : 22.3 GiB

Duration : 2 h 28 min

Overall bit rate : 21.6 Mb/s

Encoded by : BJL

Encoded date : UTC 2021-02-02 10:32:02

Writing application : mkvmerge v53.0.0 (‘Fool’s Gold’) 64-bit

Writing library : libebml v1.4.1 + libmatroska v1.6.2

Cover : Yes

Attachments : cover.png

DATA_RILASCIO : 2015

IMDb : tt2379713

ORIGINAL_MEDIA : UHD BluRay

TITOLO : 007 – Spectre (Mendes, 2015)

TRAMA : 007 Spectre e’ un film d’azione del 2015 diretto da Sam Mendes, con Daniel Craig e Monica Bellucci. In questo episodio James Bond (Daniel Craig) e’ diretto a Citta’ del Messico, dove – secondo le direttive di M – deve sventare un attentato ad opera di un’organizzazione criminale. A Londra incontra il nuovo M, Gareth Mallory (Ralph Fiennes), subentrato dopo la morte del suo predecessore, che, dopo averlo accusato di aver causato un incidente diplomatico per aver condotto un’operazione priva di autorizzazioni, decide di sospenderlo. Successivamente M viene a sapere da C, Max Denbigh (Andrew Scott), di un piano volto a sostituire il sistema degli agenti segreti 00 con un progetto chiamato Nove Occhi, ma non persuaso dalle parole del collega, lo liquida in fretta. Lo stesso C ha difficolta’ a convincere l’intelligence e la comunita’ internazionale della necessita’ del nuovo sistema. Bond nel frattempo si reca segretamente a Roma, dove incontra e seduce la vedova dell’uomo che ha ucciso a Citta’ del Messico (Monica Bellucci) per infiltrarsi nell’organizzazione criminale chiamata SPECTRE. La sua copertura salta a causa del capo Oberhauser (Christoph Waltz) che scopre la sua vera identita’. E’ costretto quindi a fuggire, non prima pero’ di scoprire che i malavitosi sono coinvolti in numerosi traffici e sono responsabili anche di diversi attentati. Bond inizia cosi’ a seguire una pista molto pericolosa con l’intento di incastrare Oberhauser, ricevendo l’aiuto di un antico nemico, Mr. White (Jesper Christensen). In punto di morte, infatti, l’uomo gli offre informazioni importanti in cambio della promessa che l’agente proteggera’ sua figlia Madeleine (Lea Seydoux). 007 mantiene fede al suo accordo e raggiunge la ragazza giusto in tempo per salvarla da un attacco degli uomini di Oberhauser. Continuando le sue ricerche, Bond capisce che il criminale e’ in combutta con il capo dei servizi C, che vuole convincere la comunita’ internazionale della necessita’ del programma Nove Occhi, commissionando alla SPECTRE una serie di attentati per mettere in dubbio l’efficacia del sistema di agenti 00. Inoltre l’agente scoprira’ a sue spese che Oberhauser e’ determinato a eliminarlo, motivato da questioni molto personali.

Video

ID : 1

Format : HEVC

Format/Info : High Efficiency Video Coding

Format profile : Main [email protected]@High

HDR format : SMPTE ST 2086, HDR10 compatible

Codec ID : V_MPEGH/ISO/HEVC

Duration : 2 h 28 min

Bit rate : 19.3 Mb/s

Width : 3 840 pixels

Height : 1 606 pixels

Display aspect ratio : 2.40:1

Frame rate mode : Constant

Frame rate : 23.976 (24000/1001) FPS

Color space : YUV

Chroma subsampling : 4:2:0 (Type 2)

Bit depth : 10 bits

Bits/(Pixel*Frame) : 0.130

Stream size : 19.9 GiB (89%)

Writing library : x265 3.2+7-37648fca915b:[Windows][GCC 9.2.0][64 bit] 10bit

Encoding settings : cpuid=1049583 / frame-threads=3 / numa-pools=12 / wpp / no-pmode / no-pme / no-psnr / no-ssim / log-level=2 / input-csp=1 / input-res=3840×1606 / interlace=0 / total-frames=213110 / level-idc=51 / high-tier=1 / uhd-bd=0 / ref=4 / no-allow-non-conformance / repeat-headers / annexb / no-aud / hrd / info / hash=0 / no-temporal-layers / open-gop / min-keyint=23 / keyint=250 / gop-lookahead=0 / bframes=12 / b-adapt=2 / b-pyramid / bframe-bias=0 / rc-lookahead=30 / lookahead-slices=4 / scenecut=40 / radl=0 / no-splice / no-intra-refresh / ctu=64 / min-cu-size=8 / rect / no-amp / max-tu-size=32 / tu-inter-depth=1 / tu-intra-depth=1 / limit-tu=0 / rdoq-level=2 / dynamic-rd=0.00 / no-ssim-rd / signhide / no-tskip / nr-intra=0 / nr-inter=0 / no-constrained-intra / no-strong-intra-smoothing / max-merge=3 / limit-refs=3 / limit-modes / me=3 / subme=4 / merange=57 / temporal-mvp / no-frame-dup / no-hme / weightp / weightb / no-analyze-src-pics / deblock=-3:-3 / no-sao / no-sao-non-deblock / rd=4 / selective-sao=0 / no-early-skip / rskip / no-fast-intra / no-tskip-fast / no-cu-lossless / no-b-intra / no-splitrd-skip / rdpenalty=0 / psy-rd=2.00 / psy-rdoq=1.00 / no-rd-refine / no-lossless / cbqpoffs=0 / crqpoffs=0 / rc=crf / crf=17.5 / qcomp=0.60 / qpstep=4 / stats-write=0 / stats-read=0 / vbv-maxrate=160000 / vbv-bufsize=160000 / vbv-init=0.9 / crf-max=0.0 / crf-min=0.0 / ipratio=1.40 / pbratio=1.30 / aq-mode=3 / aq-strength=0.80 / cutree / zone-count=0 / no-strict-cbr / qg-size=32 / no-rc-grain / qpmax=69 / qpmin=0 / no-const-vbv / sar=1 / overscan=0 / videoformat=5 / range=0 / colorprim=9 / transfer=16 / colormatrix=9 / chromaloc=1 / chromaloc-top=2 / chromaloc-bottom=2 / display-window=0 / master-display=G(13250,34500)B(7500,3000)R(34000,16000)WP(15635,16450)L(10000000,1) / cll=0,0 / min-luma=0 / max-luma=1023 / log2-max-poc-lsb=8 / vui-timing-info / vui-hrd-info / slices=1 / no-opt-qp-pps / no-opt-ref-list-length-pps / no-multi-pass-opt-rps / scenecut-bias=0.05 / no-opt-cu-delta-qp / no-aq-motion / hdr / hdr-opt / no-dhdr10-opt / no-idr-recovery-sei / analysis-reuse-level=5 / scale-factor=0 / refine-intra=0 / refine-inter=0 / refine-mv=1 / refine-ctu-distortion=0 / no-limit-sao / ctu-info=0 / no-lowpass-dct / refine-analysis-type=0 / copy-pic=1 / max-ausize-factor=1.0 / no-dynamic-refine / no-single-sei / no-hevc-aq / no-svt / no-field / qp-adaptation-range=1.00

Default : Yes

Forced : No

Color range : Limited

Color primaries : BT.2020

Transfer characteristics : PQ

Matrix coefficients : BT.2020 non-constant

Mastering display color pri : Display P3

Mastering display luminance : min: 0.0001 cd/m2, max: 1000 cd/m2

Audio #1

ID : 2

Format : DTS

Format/Info : Digital Theater Systems

Codec ID : A_DTS

Duration : 2 h 28 min

Bit rate mode : Constant

Bit rate : 768 kb/s

Channel(s) : 6 channels

Channel layout : C L R Ls Rs LFE

Sampling rate : 48.0 kHz

Frame rate : 93.750 FPS (512 SPF)

Bit depth : 24 bits

Compression mode : Lossy

Stream size : 814 MiB (4%)

Title : Italiano DTS 5.1

Language : Italian

Default : Yes

Forced : No

Audio #2

ID : 3

Format : DTS

Format/Info : Digital Theater Systems

Codec ID : A_DTS

Duration : 2 h 28 min

Bit rate mode : Constant

Bit rate : 1 509 kb/s

Channel(s) : 6 channels

Channel layout : C L R Ls Rs LFE

Sampling rate : 48.0 kHz

Frame rate : 93.750 FPS (512 SPF)

Bit depth : 24 bits

Compression mode : Lossy

Stream size : 1.56 GiB (7%)

Title : English DTS 5.1

Language : English

Default : No

Forced : No

Text #1

ID : 4

Format : UTF-8

Codec ID : S_TEXT/UTF8

Codec ID/Info : UTF-8 Plain Text

Duration : 2 h 27 min

Bit rate : 1 b/s

Count of elements : 45

Stream size : 1.24 KiB (0%)

Title : Italiano Forced

Language : Italian

Default : Yes

Forced : No

Text #2

ID : 5

Format : PGS

Codec ID : S_HDMV/PGS

Codec ID/Info : Picture based subtitle format used on BDs/HD-DVDs

Duration : 2 h 27 min

Bit rate : 19.4 kb/s

Count of elements : 2000

Stream size : 20.4 MiB (0%)

Title : Italiano Normal

Language : Italian

Default : No

Forced : No

Text #3

ID : 6

Format : PGS

Codec ID : S_HDMV/PGS

Codec ID/Info : Picture based subtitle format used on BDs/HD-DVDs

Duration : 1 h 16 min

Bit rate : 435 b/s

Count of elements : 78

Stream size : 244 KiB (0%)

Title : English Forced

Language : English

Default : No

Forced : No

Text #4

ID : 7

Format : PGS

Codec ID : S_HDMV/PGS

Codec ID/Info : Picture based subtitle format used on BDs/HD-DVDs

Duration : 2 h 19 min

Bit rate : 25.0 kb/s

Count of elements : 2724

Stream size : 25.0 MiB (0%)

Title : English SDH

Language : English

Default : No

Forced : No

Menu

00:00:00.000 : en:The Dead Are Alive

00:06:09.744 : en:Mayhem in Mexico

00:13:05.410 : en:Opening Titles / Grounded

00:18:59.096 : en:Voice From the Grave

00:24:47.403 : en:Smart Blood

00:28:04.683 : en:Funeral in Rome

00:32:16.184 : en:Saving the Widow

00:36:59.217 : en:The Meeting

00:41:57.265 : en:Welcome James

00:46:13.771 : en:Identifying the Pale King

00:50:52.549 : en:Democracy at Work

00:53:43.846 : en:The King is Dead

01:00:21.993 : en:Meeting Dr. Swann

01:06:48.838 : en:Abduction

01:10:59.589 : en:Analysis / Escape

01:15:14.719 : en:Its Name is Spectre

01:18:56.273 : en:L’Amèricain’s Secrets

01:26:11.666 : en:Nine Eyes Approved

01:29:40.625 : en:Trouble on the Train

01:36:44.173 : en:Crater in the Desert

01:41:45.016 : en:”The Author of Your Pain”

01:49:07.040 : en:Ernst Stavro Blofeld

01:55:53.446 : en:”Let’s Go Home”

01:59:39.839 : en:Capture

02:04:20.370 : en:’C’ Stands for…

02:09:29.136 : en:Three Minutes

02:14:06.288 : en:Out of Bullets

02:19:43.000 : en:”Just One Thing I Need” / Closing Credits

GOOD DOWNLOAD

Spectre.2015.UHD.BluRay.HDR.2Download Torrent Magnet

#Spectre2015UHDBluRayHDR2