Sound.Of.Metal.2019.iTA.ENG.A Full Torrent Magnet Download

Download Torrent Sound.Of.Metal.2019.iTA.ENG.A Movie Full in HD Result. Movie Sound.Of.Metal.2019.iTA.ENG.A Torrent Download full. Movie Sound.Of.Metal.2019.iTA.ENG.A torrent Magnet Download Full. Sound.Of.Metal.2019.iTA.ENG.A Full Movie Torrent Download And Magnet Download For your PC And Mobiles. Latest Movie Sound.Of.Metal.2019.iTA.ENG.A Download Link In Bottom.

Torrent And Magnet Links Below


Sound Of Metal


Titolo originale: Sound Of Metal

Genere: Drammatico, Musicale

Anno: 2019

Regia: Darius Marder

Attori: Riz Ahmed, Olivia Cooke, Paul Raci, Mathieu Amalric, Lauren Ridloff, Jamie Ghazarian, Chris Perfetti, William Xifaras, Hillary Baack, Rena Maliszewski, Tom Kemp, Bill Thorpe, Chelsea Lee

Paese: Belgio, USA

Durata: 120 min

Sceneggiatura: Darius Marder, Abraham Marder, Derek Cianfrance

Fotografia: Daniël Bouquet

Montaggio: Mikkel E.G. Nielsen

Musiche: Nicolas Becker, Abraham Marder

Produzione: Caviar


Sound of Metal, film diretto da Darius Marder, racconta la storia del batterista Ruben (Riz Ahmed), che suona in un duo musicale punk-metal, i Blackgammon, insieme alla cantante, la sua ragazza Lou (Olivia Cooke). Il giovane ha vissuto diversi momenti bui, come il periodo della tossicodipendenza. Ormai pulito da quattro anni, Ruben sembra essere tornato in forma, fino a quando durante alcune performance non si accorge di avere problemi di udito. Dopo una visita da uno specialista, il batterista viene informato che questi episodi di abbassamento dell’udito si faranno sempre più frequenti e che la sua condizione è destinata a peggiorare con gli anni. La notizia getta Ruben in pieno sconforto, dato che senza udito la sua carriera da batterista non può continuare.

Preoccupata che il fidanzato possa ricadere nella trappola della dipendenza da eroina, Lou decide di aiutarlo e lo convince a rivolgersi a una comunità di non udenti, dove Ruben viene accettato ben volentieri. Qui il batterista dovrà fare i conti con la sua situazione e cercare di trovare un proprio equilibrio interiore.




General

Unique ID : 202717611677266792166020662393342568983 (0x9881FDEA6E7857508780E0B1333CAA17)

Complete name : Sound.Of.Metal.2019.iTA.ENG.AC3.SUB.iTA.ENG.BluRay.1080p.x264.jeddak-MIRCrew.mkv

Format : Matroska

Format version : Version 2

File size : 2.54 GiB

Duration : 2 h 0 min

Overall bit rate : 3 018 kb/s

Movie name : Sound.Of.Metal.2019.iTA.ENG.AC3.SUB.iTA.ENG.BluRay.1080p.x264.jeddak-MIRCrew

Encoded date : UTC 2021-05-26 04:35:21

Writing application : mkvmerge v5.6.0 (‘Kenya Kane’) built on May 27 2012 16:44:04

Writing library : libebml v1.2.3 + libmatroska v1.3.0 / Lavf58.29.100

Video

ID : 1

Format : AVC

Format/Info : Advanced Video Codec

Format profile : [email protected]
Format settings : CABAC / 4 Ref Frames

Format settings, CABAC : Yes

Format settings, Reference : 4 frames

Codec ID : V_MPEG4/ISO/AVC

Duration : 2 h 0 min

Bit rate : 2 062 kb/s

Nominal bit rate : 2 200 kb/s

Width : 1 920 pixels

Height : 802 pixels

Display aspect ratio : 2.40:1

Frame rate mode : Constant

Frame rate : 23.976 (24000/1001) FPS

Color space : YUV

Chroma subsampling : 4:2:0

Bit depth : 8 bits

Scan type : Progressive

Bits/(Pixel*Frame) : 0.056

Stream size : 1.74 GiB (68%)

Title : …::: jeddak MIRCrew :::…

Writing library : x264 core 148

Encoding settings : cabac=1 / ref=3 / deblock=1:-1:-1 / analyse=0x3:0x113 / me=hex / subme=7 / psy=1 / psy_rd=1.00:0.15 / mixed_ref=1 / me_range=16 / chroma_me=1 / trellis=1 / 8x8dct=1 / cqm=0 / deadzone=21,11 / fast_pskip=1 / chroma_qp_offset=-3 / threads=6 / lookahead_threads=1 / sliced_threads=0 / nr=0 / decimate=1 / interlaced=0 / bluray_compat=0 / constrained_intra=0 / bframes=3 / b_pyramid=2 / b_adapt=1 / b_bias=0 / direct=1 / weightb=1 / open_gop=0 / weightp=2 / keyint=240 / keyint_min=24 / scenecut=40 / intra_refresh=0 / rc_lookahead=40 / rc=abr / mbtree=1 / bitrate=2200 / ratetol=1.0 / qcomp=0.60 / qpmin=0 / qpmax=69 / qpstep=4 / vbv_maxrate=62500 / vbv_bufsize=78125 / nal_hrd=none / filler=0 / ip_ratio=1.40 / aq=1:1.00

Default : Yes

Forced : No

Color range : Limited

Color primaries : BT.709

Transfer characteristics : BT.709

Matrix coefficients : BT.709

Audio #1

ID : 2

Format : AC-3

Format/Info : Audio Coding 3

Commercial name : Dolby Digital

Codec ID : A_AC3

Duration : 2 h 0 min

Bit rate mode : Constant

Bit rate : 448 kb/s

Channel(s) : 6 channels

Channel layout : L R C LFE Ls Rs

Sampling rate : 48.0 kHz

Frame rate : 31.250 FPS (1536 SPF)

Compression mode : Lossy

Delay relative to video : -5 ms

Stream size : 386 MiB (15%)

Title : iTA AC3 5.1

Language : Italian

Service kind : Complete Main

Default : Yes

Forced : No

Audio #2

ID : 3

Format : AC-3

Format/Info : Audio Coding 3

Commercial name : Dolby Digital

Codec ID : A_AC3

Duration : 2 h 0 min

Bit rate mode : Constant

Bit rate : 448 kb/s

Channel(s) : 6 channels

Channel layout : L R C LFE Ls Rs

Sampling rate : 48.0 kHz

Frame rate : 31.250 FPS (1536 SPF)

Compression mode : Lossy

Delay relative to video : -5 ms

Stream size : 386 MiB (15%)

Title : ENG AC3 5.1

Language : English

Service kind : Complete Main

Default : No

Forced : No

Text #1

ID : 4

Format : ASS

Codec ID : S_TEXT/ASS

Codec ID/Info : Advanced Sub Station Alpha

Compression mode : Lossless

Title : iTA FORCED

Language : Italian

Default : Yes

Forced : Yes

Text #2

ID : 5

Format : ASS

Codec ID : S_TEXT/ASS

Codec ID/Info : Advanced Sub Station Alpha

Duration : 2 h 0 min

Compression mode : Lossless

Title : iTA REGULAR

Language : Italian

Default : No

Forced : No

Text #3

ID : 6

Format : ASS

Codec ID : S_TEXT/ASS

Codec ID/Info : Advanced Sub Station Alpha

Duration : 2 h 0 min

Compression mode : Lossless

Title : ENG NON UDENTI

Language : English

Default : No

Forced : No

Menu

00:00:00.000 : :Capitolo 01

00:04:04.327 : :Capitolo 02

00:11:04.998 : :Capitolo 03

00:18:07.878 : :Capitolo 04

00:24:05.486 : :Capitolo 05

00:29:04.034 : :Capitolo 06

00:35:24.039 : :Capitolo 07

00:41:59.976 : :Capitolo 08

00:48:23.401 : :Capitolo 09

00:53:48.809 : :Capitolo 10

00:59:33.862 : :Capitolo 11

01:05:03.942 : :Capitolo 12

01:11:43.132 : :Capitolo 13

01:17:19.552 : :Capitolo 14

01:21:36.642 : :Capitolo 15

01:30:56.910 : :Capitolo 16

01:40:37.782 : :Capitolo 17

01:52:34.581 : :Capitolo 18

01:56:06.710 : :Capitolo 19

Sound.Of.Metal.2019.iTA.ENG.ADownload Torrent Magnet

#SoundOfMetal2019iTAENGA