Soul.2020.iTA-ENG.Bluray.2160 Full Torrent Magnet Download

Download Torrent Soul.2020.iTA-ENG.Bluray.2160 Movie Full in HD Result. Movie Soul.2020.iTA-ENG.Bluray.2160 Torrent Download full. Movie Soul.2020.iTA-ENG.Bluray.2160 torrent Magnet Download Full. Soul.2020.iTA-ENG.Bluray.2160 Full Movie Torrent Download And Magnet Download For your PC And Mobiles. Latest Movie Soul.2020.iTA-ENG.Bluray.2160 Download Link In Bottom.

Torrent And Magnet Links Below

DATI – TRAMA

Genere: Animazione

Anno: 2020

Regia: Pete Docter

Attori: Paola Cortellesi, Neri Marcorè, Jonis Bascir, Paola Egonu, David Blank, Paola Turani, Marta Losito, Jamie Foxx, Giulia Penna, Tina Fey, John Ratzenberger, Phylicia Rashad, Daveed Diggs, Ahmir-Khalib Thompson

Paese: USA

Durata: 100 min

Distribuzione: Disney Pixar

Joe Gardner insegna musica in una scuola media, adora il jazz e sogna la perfezione musicale, sperando di arrivare a suonare in un club importante e ben noto agli appassionati. Proprio quando sta per avere la sua possibilità, Joe precipita dentro una grata che è stata lasciata aperta e, per via della caduta, la sua anima lascia il suo corpo. Ha inizio così per Joe un viaggio che lo porterà a riflettere su quello che è davvero importante nella sua vita e in quella di ognuno di noi.

IMMAGINI



REPORT

General

Unique ID : 259105251392557945659711082561361908291 (0xC2EDDB3293AA4EF74A7CD4F673FF9243)

Complete name : Soul.2020.iTA-ENG.Bluray.2160p.x265-CYBER.mkv

Format : Matroska

Format version : Version 2

File size : 6.00 GiB

Duration : 1 h 40 min

Overall bit rate : 8 544 kb/s

Movie name : “ENJOY”

Encoded date : UTC 2021-03-18 19:33:21

Writing application : mkvmerge v45.0.0 (‘Heaven in Pennies’) 64-bit

Writing library : libebml v1.3.10 + libmatroska v1.5.2

Video

ID : 1

Format : HEVC

Format/Info : High Efficiency Video Coding

Format profile : Main [email protected]@High

HDR format : SMPTE ST 2086, HDR10 compatible

Codec ID : V_MPEGH/ISO/HEVC

Duration : 1 h 40 min

Bit rate : 6 392 kb/s

Width : 3 840 pixels

Height : 1 608 pixels

Display aspect ratio : 2.40:1

Frame rate mode : Constant

Frame rate : 23.976 (24000/1001) FPS

Color space : YUV

Chroma subsampling : 4:2:0

Bit depth : 10 bits

Bits/(Pixel*Frame) : 0.043

Stream size : 4.49 GiB (75%)

Writing library : x265 3.4+33-5fa76b3fc:[Windows][*C|Y|B|E|R*][64 bit] 10bit

Encoding settings : cpuid=1111039 / frame-threads=5 / numa-pools=32 / wpp / no-pmode / no-pme / no-psnr / no-ssim / log-level=2 / input-csp=1 / input-res=3840×1608 / interlace=0 / total-frames=0 / level-idc=51 / high-tier=1 / uhd-bd=0 / ref=2 / no-allow-non-conformance / repeat-headers / annexb / no-aud / no-hrd / info / hash=0 / no-temporal-layers / no-open-gop / min-keyint=23 / keyint=250 / gop-lookahead=0 / bframes=4 / b-adapt=0 / b-pyramid / bframe-bias=0 / rc-lookahead=15 / lookahead-slices=8 / scenecut=40 / hist-scenecut=0 / radl=0 / no-splice / no-intra-refresh / ctu=64 / min-cu-size=8 / no-rect / no-amp / max-tu-size=32 / tu-inter-depth=1 / tu-intra-depth=1 / limit-tu=0 / rdoq-level=0 / dynamic-rd=0.00 / no-ssim-rd / signhide / no-tskip / nr-intra=0 / nr-inter=0 / no-constrained-intra / strong-intra-smoothing / max-merge=2 / limit-refs=3 / no-limit-modes / me=1 / subme=1 / merange=57 / temporal-mvp / no-frame-dup / no-hme / weightp / no-weightb / no-analyze-src-pics / deblock=0:0 / sao / no-sao-non-deblock / rd=2 / selective-sao=4 / early-skip / rskip / fast-intra / no-tskip-fast / no-cu-lossless / no-b-intra / no-splitrd-skip / rdpenalty=0 / psy-rd=2.00 / psy-rdoq=0.00 / no-rd-refine / no-lossless / cbqpoffs=0 / crqpoffs=0 / rc=crf / crf=17.0 / qcomp=0.60 / qpstep=4 / stats-write=0 / stats-read=0 / vbv-maxrate=160000 / vbv-bufsize=160000 / vbv-init=0.9 / min-vbv-fullness=50.0 / max-vbv-fullness=80.0 / crf-max=0.0 / crf-min=0.0 / ipratio=1.40 / pbratio=1.30 / aq-mode=2 / aq-strength=1.00 / cutree / zone-count=0 / no-strict-cbr / qg-size=32 / no-rc-grain / qpmax=69 / qpmin=0 / no-const-vbv / sar=1 / overscan=0 / videoformat=5 / range=0 / colorprim=9 / transfer=16 / colormatrix=9 / chromaloc=0 / display-window=0 / master-display=G(13250,34500)B(7500,3000)R(34000,16000)WP(15635,16450)L(10000000,00) / cll=0,0 / min-luma=0 / max-luma=1023 / log2-max-poc-lsb=8 / vui-timing-info / vui-hrd-info / slices=1 / no-opt-qp-pps / no-opt-ref-list-length-pps / no-multi-pass-opt-rps / scenecut-bias=0.05 / hist-threshold=0.03 / no-opt-cu-delta-qp / no-aq-motion / hdr10 / no-hdr10-opt / no-dhdr10-opt / no-idr-recovery-sei / analysis-reuse-level=0 / analysis-save-reuse-level=0 / analysis-load-reuse-level=0 / scale-factor=0 / refine-intra=0 / refine-inter=0 / refine-mv=1 / refine-ctu-distortion=0 / no-limit-sao / ctu-info=0 / no-lowpass-dct / refine-analysis-type=0 / copy-pic=1 / max-ausize-factor=1.0 / no-dynamic-refine / no-single-sei / no-hevc-aq / no-svt / no-field / qp-adaptation-range=1.00 / no-scenecut-aware-qpconformance-window-offsets / right=0 / bottom=0 / decoder-max-rate=0 / no-vbv-live-multi-pass

Language : English

Default : Yes

Forced : No

Color range : Limited

Color primaries : BT.2020

Transfer characteristics : PQ

Matrix coefficients : BT.2020 non-constant

Mastering display color primaries : Display P3

Mastering display luminance : min: 0.0000 cd/m2, max: 1000 cd/m2

Audio #1

ID : 2

Format : E-AC-3

Format/Info : Enhanced AC-3

Commercial name : Dolby Digital Plus

Codec ID : A_EAC3

Duration : 1 h 40 min

Bit rate mode : Constant

Bit rate : 256 kb/s

Channel(s) : 6 channels

Channel layout : L R C LFE Ls Rs

Sampling rate : 48.0 kHz

Frame rate : 31.250 FPS (1536 SPF)

Compression mode : Lossy

Delay relative to video : 13 ms

Stream size : 184 MiB (3%)

Title : WEBDL DISNEY+

Language : Italian

Service kind : Complete Main

Default : Yes

Forced : No

Audio #2

ID : 3

Format : AC-3

Format/Info : Audio Coding 3

Commercial name : Dolby Digital

Codec ID : A_AC3

Duration : 1 h 40 min

Bit rate mode : Constant

Bit rate : 384 kb/s

Channel(s) : 6 channels

Channel layout : L R C LFE Ls Rs

Sampling rate : 48.0 kHz

Frame rate : 31.250 FPS (1536 SPF)

Compression mode : Lossy

Stream size : 276 MiB (4%)

Title : WEBDL DISNEY+

Language : Italian

Service kind : Complete Main

Default : No

Forced : No

Audio #3

ID : 4

Format : DTS

Format/Info : Digital Theater Systems

Codec ID : A_DTS

Duration : 1 h 40 min

Bit rate mode : Constant

Bit rate : 1 509 kb/s

Channel(s) : 6 channels

Channel layout : C L R Ls Rs LFE

Sampling rate : 48.0 kHz

Frame rate : 93.750 FPS (512 SPF)

Bit depth : 24 bits

Compression mode : Lossy

Stream size : 1.06 GiB (18%)

Language : English

Default : No

Forced : No

Text #1

ID : 5

Format : UTF-8

Codec ID : S_TEXT/UTF8

Codec ID/Info : UTF-8 Plain Text

Duration : 1 h 35 min

Bit rate : 0 b/s

Count of elements : 9

Stream size : 291 Bytes (0%)

Title : FORCED

Language : Italian

Default : Yes

Forced : No

Text #2

ID : 6

Format : UTF-8

Codec ID : S_TEXT/UTF8

Codec ID/Info : UTF-8 Plain Text

Duration : 1 h 39 min

Bit rate : 62 b/s

Count of elements : 1337

Stream size : 45.4 KiB (0%)

Title : REGOLARI

Language : Italian

Default : No

Forced : No

Text #3

ID : 7

Format : UTF-8

Codec ID : S_TEXT/UTF8

Codec ID/Info : UTF-8 Plain Text

Duration : 1 h 39 min

Bit rate : 68 b/s

Count of elements : 1599

Stream size : 49.9 KiB (0%)

Title : NON UDENTI

Language : English

Default : No

Forced : No

Menu

00:00:00.000 : en:Chapter 01

00:10:00.000 : en:Chapter 02

00:20:00.000 : en:Chapter 03

00:30:00.000 : en:Chapter 04

00:40:00.000 : en:Chapter 05

00:50:00.000 : en:Chapter 06

01:00:00.000 : en:Chapter 07

01:10:00.000 : en:Chapter 08

01:20:00.000 : en:Chapter 09

01:30:00.000 : en:Chapter 10

GOOD DOWNLOAD

Soul.2020.iTA-ENG.Bluray.2160Download Torrent Magnet

#Soul2020iTAENGBluray2160