Soul.2020.1080p.BluRay.DDP5.1 Full Torrent Magnet Download

Download Torrent Soul.2020.1080p.BluRay.DDP5.1 Movie Full in HD Result. Movie Soul.2020.1080p.BluRay.DDP5.1 Torrent Download full. Movie Soul.2020.1080p.BluRay.DDP5.1 torrent Magnet Download Full. Soul.2020.1080p.BluRay.DDP5.1 Full Movie Torrent Download And Magnet Download For your PC And Mobiles. Latest Movie Soul.2020.1080p.BluRay.DDP5.1 Download Link In Bottom.

Torrent And Magnet Links Below

Soul.2020.1080p.BluRay.DDP5.1-English.MSubs.HEVC~The.PunisheR.mkv

MediaInfos:
General

Unique ID : 20857798965591931634908513148575923046 (0xFB110E2C4423DB348A16F850B2BBB66)

Complete name : Soul.2020.1080p.BluRay.DDP5.1-English.MSubs.HEVC~The.PunisheR.mkv

Format : Matroska

Format version : Version 4

File size : 2.47 GiB

Duration : 1 h 40 min

Overall bit rate : 3 521 kb/s

Description : Encoded By – The.PunisheR

Encoded date : UTC 2021-03-20 18:02:47

Writing application : mkvmerge v55.0.0 (‘Waiting For Space’) 64-bit

Writing library : libebml v1.4.2 + libmatroska v1.6.4 / Lavf57.83.100

Video

ID : 1

Format : HEVC

Format/Info : High Efficiency Video Coding

Format profile : [email protected]@Main

Codec ID : V_MPEGH/ISO/HEVC

Duration : 1 h 40 min

Bit rate : 2 830 kb/s

Width : 1 920 pixels

Height : 804 pixels

Display aspect ratio : 2.40:1

Frame rate mode : Constant

Frame rate : 23.976 (24000/1001) FPS

Color space : YUV

Chroma subsampling : 4:2:0

Bit depth : 8 bits

Bits/(Pixel*Frame) : 0.076

Stream size : 1.99 GiB (80%)

Title : 1080p / 8bit / BluRay / HEVC ~ The.PunisheR

Language : English

Default : Yes

Forced : Yes

Color range : Limited

Color primaries : BT.709

Transfer characteristics : BT.709

Matrix coefficients : BT.709

Audio

ID : 2

Format : E-AC-3

Format/Info : Enhanced AC-3

Commercial name : Dolby Digital Plus

Codec ID : A_EAC3

Duration : 1 h 40 min

Bit rate mode : Constant

Bit rate : 640 kb/s

Channel(s) : 6 channels

Channel layout : L R C LFE Ls Rs

Sampling rate : 48.0 kHz

Frame rate : 31.250 FPS (1536 SPF)

Compression mode : Lossy

Stream size : 460 MiB (18%)

Title : DD+ 5.1 / 640kbps / 48Khz ~ The.PunisheR

Language : English

Service kind : Complete Main

Default : Yes

Forced : Yes

Text #1

ID : 3

ID in the original source medium : 4608 (0x1200)

Format : PGS

Muxing mode : zlib

Codec ID : S_HDMV/PGS

Codec ID/Info : Picture based subtitle format used on BDs/HD-DVDs

Duration : 1 h 40 min

Bit rate : 51.9 kb/s

Count of elements : 3716

Stream size : 37.3 MiB (1%)

Title : English-PGS

Language : English

Default : No

Forced : No

Original source medium : Blu-ray

Text #2

ID : 4

ID in the original source medium : 4609 (0x1201)

Format : PGS

Muxing mode : zlib

Codec ID : S_HDMV/PGS

Codec ID/Info : Picture based subtitle format used on BDs/HD-DVDs

Duration : 1 h 39 min

Bit rate : 40.7 kb/s

Count of elements : 2688

Stream size : 29.1 MiB (1%)

Title : Spanish-PGS

Language : Spanish

Default : No

Forced : No

Original source medium : Blu-ray

Text #3

ID : 5

ID in the original source medium : 4610 (0x1202)

Format : PGS

Muxing mode : zlib

Codec ID : S_HDMV/PGS

Codec ID/Info : Picture based subtitle format used on BDs/HD-DVDs

Duration : 1 h 40 min

Bit rate : 75.2 kb/s

Count of elements : 3532

Stream size : 54.0 MiB (2%)

Title : English-COMMENTARY-PGS

Language : English

Default : No

Forced : No

Original source medium : Blu-ray

Menu

00:00:00.000 : :Chapter 1

00:03:33.547 : :Chapter 2

00:04:58.632 : :Chapter 3

00:08:43.857 : :Chapter 4

00:09:18.892 : :Chapter 5

00:11:50.710 : :Chapter 6

00:12:30.750 : :Chapter 7

00:15:04.237 : :Chapter 8

00:17:12.698 : :Chapter 9

00:18:26.105 : :Chapter 10

00:19:54.527 : :Chapter 11

00:21:31.290 : :Chapter 12

00:26:01.560 : :Chapter 13

00:29:48.453 : :Chapter 14

00:36:08.833 : :Chapter 15

00:38:23.968 : :Chapter 16

00:39:54.058 : :Chapter 17

00:41:55.847 : :Chapter 18

00:43:44.288 : :Chapter 19

00:44:29.333 : :Chapter 20

00:46:07.765 : :Chapter 21

00:49:39.643 : :Chapter 22

00:50:41.372 : :Chapter 23

00:51:29.753 : :Chapter 24

00:55:31.662 : :Chapter 25

00:57:00.083 : :Chapter 26

00:58:35.178 : :Chapter 27

01:00:31.962 : :Chapter 28

01:04:48.885 : :Chapter 29

01:07:54.070 : :Chapter 30

01:09:15.818 : :Chapter 31

01:12:34.350 : :Chapter 32

01:15:32.862 : :Chapter 33

01:17:24.640 : :Chapter 34

01:21:16.538 : :Chapter 35

01:22:58.307 : :Chapter 36

01:26:43.532 : :Chapter 37

01:28:33.642 : :Chapter 38

01:30:13.742 : :Chapter 39

Screenshots:





Quote:

Source:
               Soul.2020.1080p.BluRay.REMUX.TrueHD.7.1.Atmos.MSubs.AVC~The.PunisheR.mkv

Soul.2020.1080p.BluRay.DDP5.1Download Torrent Magnet

#Soul20201080pBluRayDDP51