Solaris 2002 BR EAC3 VFF ENG Full Torrent Magnet Download

Download Torrent Solaris 2002 BR EAC3 VFF ENG Movie Full in HD Result. Movie Solaris 2002 BR EAC3 VFF ENG Torrent Download full. Movie Solaris 2002 BR EAC3 VFF ENG torrent Magnet Download Full. Solaris 2002 BR EAC3 VFF ENG Full Movie Torrent Download And Magnet Download For your PC And Mobiles. Latest Movie Solaris 2002 BR EAC3 VFF ENG Download Link In Bottom.

Torrent And Magnet Links Below

______________________________________________________________________________________________________________
Solaris 2002
Bluray · 1080p x265 10bits · DD+ 5.1 VFF ENG
¯¯¯¯¯¯¯¯¯¯¯¯¯¯¯¯¯¯¯¯¯¯¯¯¯¯¯¯¯¯¯¯¯¯¯¯¯¯¯¯¯¯¯¯¯¯¯¯¯¯¯¯¯¯¯¯¯¯¯¯¯¯¯¯¯¯¯¯¯¯¯¯¯¯¯¯¯¯¯¯

Year : 2002

Country : United States

Original, French and English Title : Solaris

Director : Steven Soderbergh
Music from : Cliff Martinez

Acteurs : George Clooney, Natascha McElhone, Jeremy Davies, Viola Davis, Ulrich Tukur

Genre : Sci-Fi, Romance, Mystery, Drama

Certificate : All public
Budget : 47 000 000 $ · Recipe : 28 329 021 $ · ratio : 60 %

Link : Allociné 2,3 /5 · IMDB 6,2 /10 · TMDB 60 % · SensCritique 5,8 /10 · Wiki · Bande Annonce

French Plot
Répondant à l’appel de détresse lancé par son ami Giberian , le commandant du Prométhée , une station spatiale gravitant autour de la planète Solaris , le docteur Chris Kelvin décide de se rendre à son bord. Une fois sur place, il découvre que Giberian s’est suicidé et que les deux autres scientifiques présentent des signes aigus de stress et de paranoïa. Chris mène alors des recherches sur le comportement pour le moins étrange des rescapés. Lui-même sera victime d’une force mystérieuse qui le mettra en présence de Rheya , celle qu’il a aimée autrefois et qui a mis fin à ses jours.

Adaptation du roman : Solaris de Stanislas Lem 1961


If you enjoy and wish to support, please stay in seeding

Technical Details
¯¯¯¯¯¯¯¯¯¯¯¯¯¯¯¯¯¯¯¯¯¯¯¯¯¯¯¯¯¯¯¯¯¯¯¯¯¯¯¯¯¯¯¯¯¯¯¯¯¯¯¯¯¯¯¯¯¯¯¯¯¯¯¯¯¯¯¯¯¯¯¯¯¯¯¯¯¯¯¯¯¯¯¯¯¯¯¯¯¯¯¯¯¯¯¯¯¯¯¯
Media
Matroska 3,59 Gio 1 h38 mn 5207 Kbps

Video
HEVC/H265 1920 x820 @23.976 [email protected]@Main 10 bits 4300 Kbps VerySlow qp24,05
Audio
True French 5.1 EAC3 448 Kbps 48KHz 16bits

English (OV) 5.1 EAC3 448 Kbps 48KHz 16bits

Subtitles
True French forced SRT
True French full SRT
True French full PGS
Chapters
International, True French, English

Screenshot

Origin
Bluray : Video AVC 1080p 20480 Kbps, VFF 5.1 DTS-HDMA 2145 Kbps, Anglais 5.1 DTS-HDMA 2135 Kbps

NFO
¯¯¯¯¯¯¯¯¯¯¯¯¯¯¯¯¯¯¯¯¯¯¯¯¯¯¯¯¯¯¯¯¯¯¯¯¯¯¯¯¯¯¯¯¯¯¯¯¯¯¯¯¯¯¯¯¯¯¯¯¯¯¯¯¯¯¯¯¯¯¯¯¯¯¯¯¯¯¯¯¯¯¯¯¯¯¯¯¯¯¯¯¯¯¯¯¯¯¯¯

General
Format : Matroska
Format version : Version 4

File size : 3.59 GiB
Duration : 1 h 38 min

Overall bit rate : 5 207 kb/s

Movie name : Solaris 2002 de Steven Soderbergh avec George Clooney, Natascha McElhone, Jeremy Davies, Viola Davis, Ulrich Tukur. Tout public (allocine=43943,imdb=tt0307479) T0M
Encoded date : UTC 2018-10-13 00:06:59

Writing application : mkvmerge v8.0.0 (‘Til The Day That I Die’) 64bit

Writing library : libebml v1.3.1 + libmatroska v1.4.2

Cover : Yes

Attachments : Cover.jpg

Video
ID : 1

Format : HEVC
Format/Info : High Efficiency Video Coding

Format profile : Main [email protected]@Main

Codec ID : V_MPEGH/ISO/HEVC

Duration : 1 h 38 min

Bit rate : 4 300 kb/s

Width : 1 920 pixels

Height : 820 pixels

Display aspect ratio : 2.35:1

Frame rate mode : Constant

Frame rate : 23.976 (24000/1001) FPS

Color space : YUV

Chroma subsampling : 4:2:0

Bit depth : 10 bits

Bits/(Pixel*Frame) : 0.114

Stream size : 2.97 GiB (83%)

Title : Video HEVC 1920×1080 @23.976 x265 [email protected]@Main 10bits 4300kbps 2pass veryslow 1703mn
Writing library : x265 2.6:[Windows][GCC 7.3.0][64 bit] 10bit

Encoding settings : cpuid=1173503 / frame-threads=3 / numa-pools=8 / wpp / no-pmode / no-pme / no-psnr / no-ssim / log-level=2 / input-csp=1 / input-res=1920×820 / interlace=0 / total-frames=0 / level-idc=0 / high-tier=1 / uhd-bd=0 / ref=5 / no-allow-non-conformance / no-repeat-headers / annexb / no-aud / no-hrd / info / hash=0 / no-temporal-layers / open-gop / min-keyint=24 / keyint=240 / bframes=8 / b-adapt=2 / b-pyramid / bframe-bias=0 / rc-lookahead=40 / lookahead-slices=0 / scenecut=40 / no-intra-refresh / ctu=64 / min-cu-size=8 / rect / amp / max-tu-size=32 / tu-inter-depth=3 / tu-intra-depth=3 / limit-tu=4 / rdoq-level=2 / dynamic-rd=0.00 / no-ssim-rd / signhide / no-tskip / nr-intra=0 / nr-inter=0 / no-constrained-intra / strong-intra-smoothing / max-merge=4 / limit-refs=1 / limit-modes / me=3 / subme=4 / merange=57 / temporal-mvp / weightp / weightb / no-analyze-src-pics / deblock=0:0 / sao / no-sao-non-deblock / rd=6 / no-early-skip / rskip / no-fast-intra / no-tskip-fast / no-cu-lossless / b-intra / no-splitrd-skip / rdpenalty=0 / psy-rd=2.00 / psy-rdoq=1.00 / no-rd-refine / analysis-reuse-mode=0 / no-lossless / cbqpoffs=0 / crqpoffs=0 / rc=abr / bitrate=4300 / qcomp=0.60 / qpstep=4 / stats-write=0 / stats-Read=2 / cplxblur=20.0 / qblur=0.5 / ipratio=1.40 / pbratio=1.30 / aq-mode=1 / aq-strength=1.00 / cutree / zone-count=0 / no-strict-cbr / qg-size=32 / no-rc-grain / qpmax=69 / qpmin=0 / no-const-vbv / sar=1 / overscan=0 / videoformat=5 / range=0 / colorprim=1 / transfer=1 / colormatrix=1 / chromaloc=0 / display-window=0 / max-cll=0,0 / min-luma=0 / max-luma=1023 / log2-max-poc-lsb=8 / vui-timing-info / vui-hrd-info / slices=1 / no-opt-qp-pps / no-opt-ref-list-length-pps / no-multi-pass-opt-rps / scenecut-bias=0.05 / no-opt-cu-delta-qp / no-aq-motion / no-hdr / no-hdr-opt / no-dhdr10-opt / analysis-reuse-level=5 / scale-factor=0 / refine-intra=0 / refine-inter=0 / refine-mv=0 / no-limit-sao / ctu-info=0 / no-lowpass-dct / refine-mv-type=0 / copy-pic=1

Default : Yes

Forced : No

Color range : Limited

Color primaries : BT.709

Transfer characteristics : BT.709

Matrix coefficients : BT.709

Audio #1
ID : 2

Format : E-AC-3
Format/Info : Enhanced AC-3

Commercial name : Dolby Digital Plus

Codec ID : A_EAC3

Duration : 1 h 38 min

Bit rate mode : Constant

Bit rate : 448 kb/s

Channel(s) : 6 channels

Channel layout : L R C LFE Ls Rs

Sampling rate : 48.0 kHz

Frame rate : 31.250 FPS (1536 SPF)

Compression mode : Lossy

Delay relative to video : 5 ms

Stream size : 316 MiB (9%)

Title : Français 5.1 EAC3 448kbps 48khz 16bits
Language : French
Service kind : Complete Main

Default : Yes

Forced : No

Audio #2
ID : 3

Format : E-AC-3
Format/Info : Enhanced AC-3

Commercial name : Dolby Digital Plus

Codec ID : A_EAC3

Duration : 1 h 38 min

Bit rate mode : Constant

Bit rate : 448 kb/s

Channel(s) : 6 channels

Channel layout : L R C LFE Ls Rs

Sampling rate : 48.0 kHz

Frame rate : 31.250 FPS (1536 SPF)

Compression mode : Lossy

Delay relative to video : 5 ms

Stream size : 316 MiB (9%)

Title : English 5.1 EAC3 448kbps 48khz 16bits
Language : English
Service kind : Complete Main

Default : No

Forced : No

Text #1
ID : 4

Format : UTF-8
Codec ID : S_TEXT/UTF8

Codec ID/Info : UTF-8 Plain Text

Duration : 1 h 38 min

Bit rate : 0 b/s

Count of elements : 8

Stream size : 413 Bytes (0%)

Title : Français forcé (Passages)
Language : French
Default : Yes

Forced : Yes

Text #2
ID : 5

Format : UTF-8
Codec ID : S_TEXT/UTF8

Codec ID/Info : UTF-8 Plain Text

Duration : 1 h 38 min

Bit rate : 30 b/s

Count of elements : 601

Stream size : 22.4 KiB (0%)

Title : Français complet (Tous le film)
Language : French
Default : No

Forced : No

Text #3
ID : 6

Format : PGS
Muxing mode : zlib

Codec ID : S_HDMV/PGS

Codec ID/Info : Picture based subtitle format used on BDs/HD-DVDs

Duration : 1 h 37 min

Bit rate : 7 808 b/s

Count of elements : 1192

Stream size : 5.45 MiB (0%)

Title : Français complet (Tous le film) PGS
Language : French
Default : No

Forced : No

Menu
00:00:00.000 : :01 – 00:00:00 – fr:Kelvin sur Terre – en:Kelvin on Earth

00:03:40.012 : :02 – 00:03:40 – fr:Visite de la DBA – en:Visit From DBA

00:06:39.816 : :03 – 00:06:39 – fr:Est-ce ce que tout le monde veut ? – en:”Is that what everybody wants?”

00:09:02.543 : :04 – 00:09:02 – fr:Kelvin explore le Prométhée – en:Kelvin Explores the Prometheus

00:11:38.574 : :05 – 00:11:38 – fr:Snow – en:Snow

00:15:04.238 : :06 – 00:15:04 – fr:Gordon – en:Gordon

00:17:14.159 : :07 – 00:17:14 – fr:Bilan de l’équipage – en:Debriefing the Crew

00:20:13.964 : :08 – 00:20:13 – fr:Premier sommeil – en:First Sleep

00:23:25.989 : :09 – 00:23:25 – fr:Kelvin et Rheya se rencontrent – en:Kelvin and Rheya Meet

00:28:54.026 : :10 – 00:28:54 – fr:Se réveiller – en:Waking Up

00:32:11.932 : :11 – 00:32:11 – fr:Puis-je venir m’asseoir avec vous ? – en:”Can I come and sit with you?”

00:35:29.630 : :12 – 00:35:29 – fr:Se souvenir de la vie avec Rheya – en:Remembering Life With Rheya

00:40:28.387 : :13 – 00:40:28 – fr:Rheya construit sa mémoire – en:Rheya Constructs Her Memory

00:49:36.268 : :14 – 00:49:36 – fr:Kelvin quitte Rheya – en:Kelvin Leaves Rheya

00:52:11.673 : :15 – 00:52:11 – fr:”Et la mort n’aura pas d’empire” – en:”and death shall have no dominion”

00:54:10.250 : :16 – 00:54:10 – fr:Stratégie avec Gordon et Snow – en:Strategy with Gordon and Snow

00:59:17.182 : :17 – 00:59:17 – fr:Gibarian apparaît – en:Gibarian Appears

01:01:52.629 : :18 – 01:01:52 – fr:La résurrection – en:The Resurrection

01:07:24.294 : :19 – 01:07:24 – fr:Une chance d’annuler des erreurs – en:A Chance to Undo Mistakes

01:11:14.024 : :20 – 01:11:14 – fr:Rêve fièvreux – en:Fever Dream

01:18:09.481 : :21 – 01:18:09 – fr:Kelvin et Gordon dans la chambre froide – en:Kelvin and Gordon In the Cold Room

01:19:46.453 : :22 – 01:19:46 – fr:Le visiteur de Snow – en:Snow’s Visitor

01:22:15.602 : :23 – 01:22:15 – fr:”Mettez votre ceinture de sécurité” – en:”Wear your seatbelt”

01:25:22.956 : :24 – 01:25:22 – fr:Retour – en:Going Back

01:31:21.064 : :25 – 01:31:21 – fr:Titres de fin – en:End Titles

01:32:35.220 : :26 – 01:32:35 – fr:30 secondes d’apesanteur – en:30 seconds of weightlessness

Solaris 2002 BR EAC3 VFF ENG Download Torrent Magnet

#Solaris #EAC3 #VFF #ENG