Snowpiercer 2013 Bonus BR EAC Full Torrent Magnet Download

Download Torrent Snowpiercer 2013 Bonus BR EAC Movie Full in HD Result. Movie Snowpiercer 2013 Bonus BR EAC Torrent Download full. Movie Snowpiercer 2013 Bonus BR EAC torrent Magnet Download Full. Snowpiercer 2013 Bonus BR EAC Full Movie Torrent Download And Magnet Download For your PC And Mobiles. Latest Movie Snowpiercer 2013 Bonus BR EAC Download Link In Bottom.

Torrent And Magnet Links Below

______________________________________________________________________________________________________________
Snowpiercer 설국열차 2013
Bluray · 1080p x265 10bits · DD+ 5.1 VFF ENG
More Bonus
¯¯¯¯¯¯¯¯¯¯¯¯¯¯¯¯¯¯¯¯¯¯¯¯¯¯¯¯¯¯¯¯¯¯¯¯¯¯¯¯¯¯¯¯¯¯¯¯¯¯¯¯¯¯¯¯¯¯¯¯¯¯¯¯¯¯¯¯¯¯¯¯¯¯¯¯¯¯¯¯

Year : 2013

Country : South Korean, French, United States, Czech Republic

Original and English Title : 설국열차

French Title : Snowpiercer le Transperceneige

International Title : Snowpiercer

Director : Bong Joon Ho
Music from : Marco Beltrami

Acteurs : Chris Evans, Song Kang Ho, Ed Harris, John Hurt, Tilda Swinton, Jamie Bell, Octavia Spencer, Ewen Bremner, Ko Asung, Alison Pill

Vlad Ivanov, Luke Pasqualino, Clark Middleton, Stephen Park, Paul Lazar, Adnan Haskovic, Tómas Lemarquis, Emma Levie

Marcanthonee Jon Reis, Karel Veselý, Ana Braun

Genre : Sci-Fi, Action, Drama

Certificate : Not recommended for children under 12 years old
Budget : 39 200 000 $ · Recipe : 86 758 912 $ · ratio : 221 %

Link : Allociné 3,4 /5 · IMDB 7,1 /10 · TMDB 68 % · SensCritique 6,7 /10 · Wiki · Bande Annonce

French Plot
2031 . Une nouvelle ère glaciaire . Les derniers survivants ont pris place à bord du Snowpiercer , un train gigantesque condamné à tourner autour de la Terre sans jamais s’arrêter. Dans ce microcosme futuriste de métal fendant la glace, s’est recréée une hiérarchie des classes contre laquelle une poignée d’hommes entraînés par l’un d’eux tente de lutter. Car l’être humain ne changera jamais…

Adaptation de : la bande dessinée Le Transperceneige Scénario de Jacques Lob, dessin de Jean-Marc Rochette publiée en octobre 1982

Bonus
Making of – De la Feuille Blanche a l’ecran 54 mn – 378,0 Mib – 720×576 HEVC 10Bits – VFF – 084a3058
Making of – Les Decors 10 mn – 74,80 Mib – 720×576 HEVC 10Bits – VOSTFR – 21b05a2d
Making of – Les Effets Visuels 17 mn – 116,0 Mib – 720×576 HEVC 10Bits – VOSTFR – 648c699c
Cast – Chris Evans 8 mn – 53,40 Mib – 720×576 HEVC 10Bits – VOSTFR – 4b0947f6
Cast – John Hurt 12 mn – 69,70 Mib – 720×576 HEVC 10Bits – VOSTFR – 3312b712
Cast – Octavia Spencer 11 mn – 73,20 Mib – 720×576 HEVC 10Bits – VOSTFR – 9c801cc0
Cast – Tilda Swinton 10 mn – 62,60 Mib – 720×576 HEVC 10Bits – VOSTFR – 81949cdb
Snowpiercer Prologue Animation 4 mn – 118,0 Mib – 1920×960 HEVC 10Bits – VOSTFR – 25c4a8e6
Preview 1 mn – 6,47 Mib – 720×576 HEVC 10Bits – VOSTFR – ac1a47bc
Photos Covers 1 mn – 9,67 Mib – 1920×1080 HEVC 10Bits – MUSIQUE – ff3b6854
Photos 6 mn – 43,30 Mib – 1920×1080 HEVC 10Bits – MUSIQUE – ff3b6854
Teaser 1 38 s – 4,17 Mib – 720×576 HEVC 10Bits – VOSTFR – e1192533
Teaser 2 1 mn – 5,81 Mib – 720×576 HEVC 10Bits – VFF – d7068442
Teaser 3 1 mn – 11,30 Mib – 720×576 HEVC 10Bits – VFF – 68533a12
Teaser 4 1 mn – 5,99 Mib – 720×576 HEVC 10Bits – VO – 45d2e39c
Teaser 5 1 mn – 11,70 Mib – 720×576 HEVC 10Bits – VO – 5546c42f
Bluray Opening 1 mn – 11,50 Mib – 1920×1080 HEVC 10Bits – MUSIQUE – 9e6c071c
Bluray Looping 59 s – 5,89 Mib – 1920×1080 HEVC 10Bits – MUSIQUE – 9ddc71cb
18 bonus, total 1,04 Gib 2 h27 mn


If you enjoy and wish to support, please stay in seeding

Technical Details
¯¯¯¯¯¯¯¯¯¯¯¯¯¯¯¯¯¯¯¯¯¯¯¯¯¯¯¯¯¯¯¯¯¯¯¯¯¯¯¯¯¯¯¯¯¯¯¯¯¯¯¯¯¯¯¯¯¯¯¯¯¯¯¯¯¯¯¯¯¯¯¯¯¯¯¯¯¯¯¯¯¯¯¯¯¯¯¯¯¯¯¯¯¯¯¯¯¯¯¯
Media
Matroska 3,76 Gio 2 h06 mn 4262 Kbps, Total 4,80 Gio 4 h33 mn
Video
HEVC/H265 1920 x1040 @23.976 [email protected]@Main 10 bits 3351 Kbps VerySlow qp24,37
Audio
True French 5.1 EAC3 448 Kbps 48KHz 16bits

English (OV) 5.1 EAC3 448 Kbps 48KHz 16bits

Subtitles
True French forced SRT
True French full SRT
True French forced PGS
True French full PGS
Chapters
International

Screenshot

Origin
Bluray : Video AVC 1080p 21606 Kbps, VFF 5.1 DTS-HDMA 2312 Kbps, ENG 5.1 DTS-HDMA 2260 Kbps

NFO
¯¯¯¯¯¯¯¯¯¯¯¯¯¯¯¯¯¯¯¯¯¯¯¯¯¯¯¯¯¯¯¯¯¯¯¯¯¯¯¯¯¯¯¯¯¯¯¯¯¯¯¯¯¯¯¯¯¯¯¯¯¯¯¯¯¯¯¯¯¯¯¯¯¯¯¯¯¯¯¯¯¯¯¯¯¯¯¯¯¯¯¯¯¯¯¯¯¯¯¯

General
Complete name : Snowpiercer 2013 BR EAC3 VFF ENG 1080p x265 10Bits T0M.mkv

Format : Matroska
Format version : Version 4

File size : 3.76 GiB
Duration : 2 h 6 min

Overall bit rate : 4 262 kb/s

Movie name : Snowpiercer le Transperceneige (설국열차,Snowpiercer) 2013 de Bong Joon Ho avec Chris Evans, Song Kang Ho, Ed Harris, John Hurt, Tilda Swinton, Jamie Bell, Octavia Spencer, Ewen Bremner, Ko Asung, Alison Pill, Vlad Ivanov, Luke Pasqualino, Clark Middleton, Stephen Park, Paul Lazar, Adnan Haskovic, Tómas Lemarquis, Emma Levie, Marcanthonee Jon Reis, Karel Veselý, Ana Braun. -12 ans (allocine=123530,imdb=tt1706620) T0M
Encoded date : UTC 2019-06-21 01:34:53

Writing application : mkvmerge v33.1.0 (‘Primrose’) 64-bit

Writing library : libebml v1.3.7 + libmatroska v1.5.0

Cover : Yes

Attachments : Cover.jpg

Video
ID : 1

Format : HEVC
Format/Info : High Efficiency Video Coding

Format profile : Main [email protected]@Main

Codec ID : V_MPEGH/ISO/HEVC

Duration : 2 h 6 min

Bit rate : 3 351 kb/s

Width : 1 920 pixels

Height : 1 040 pixels

Display aspect ratio : 1.85:1

Frame rate mode : Constant

Frame rate : 23.976 (24000/1001) FPS

Color space : YUV

Chroma subsampling : 4:2:0

Bit depth : 10 bits

Bits/(Pixel*Frame) : 0.070

Stream size : 2.95 GiB (79%)

Title : Video HEVC 1920×1040 @23.976 x265 [email protected]@Main 10bits 3350kbps 2pass veryslow 2424mn
Writing library : x265 2.9:[Windows][GCC 8.2.0][64 bit] 10bit

Encoding settings : cpuid=1111039 / frame-threads=3 / numa-pools=8 / wpp / no-pmode / no-pme / no-psnr / no-ssim / log-level=2 / input-csp=1 / input-res=1920×1040 / interlace=0 / total-frames=0 / level-idc=0 / high-tier=1 / uhd-bd=0 / ref=5 / no-allow-non-conformance / no-repeat-headers / annexb / no-aud / no-hrd / info / hash=0 / no-temporal-layers / open-gop / min-keyint=24 / keyint=240 / gop-lookahead=0 / bframes=8 / b-adapt=2 / b-pyramid / bframe-bias=0 / rc-lookahead=120 / lookahead-slices=0 / scenecut=40 / radl=0 / no-intra-refresh / ctu=64 / min-cu-size=8 / rect / amp / max-tu-size=32 / tu-inter-depth=3 / tu-intra-depth=3 / limit-tu=4 / rdoq-level=2 / dynamic-rd=0.00 / no-ssim-rd / signhide / no-tskip / nr-intra=0 / nr-inter=0 / no-constrained-intra / strong-intra-smoothing / max-merge=4 / limit-refs=1 / limit-modes / me=3 / subme=4 / merange=57 / temporal-mvp / weightp / weightb / no-analyze-src-pics / deblock=0:0 / sao / no-sao-non-deblock / rd=6 / no-early-skip / rskip / no-fast-intra / no-tskip-fast / no-cu-lossless / b-intra / no-splitrd-skip / rdpenalty=0 / psy-rd=2.00 / psy-rdoq=1.00 / no-rd-refine / no-lossless / cbqpoffs=0 / crqpoffs=0 / rc=abr / bitrate=3350 / qcomp=0.60 / qpstep=4 / stats-write=0 / stats-Read=2 / cplxblur=20.0 / qblur=0.5 / ipratio=1.40 / pbratio=1.30 / aq-mode=1 / aq-strength=1.00 / cutree / zone-count=0 / no-strict-cbr / qg-size=32 / no-rc-grain / qpmax=69 / qpmin=0 / no-const-vbv / sar=1 / overscan=0 / videoformat=5 / range=0 / colorprim=1 / transfer=1 / colormatrix=1 / chromaloc=0 / display-window=0 / max-cll=0,0 / min-luma=0 / max-luma=1023 / log2-max-poc-lsb=8 / vui-timing-info / vui-hrd-info / slices=1 / no-opt-qp-pps / no-opt-ref-list-length-pps / no-multi-pass-opt-rps / scenecut-bias=0.05 / no-opt-cu-delta-qp / no-aq-motion / no-hdr / no-hdr-opt / no-dhdr10-opt / no-idr-recovery-sei / analysis-reuse-level=5 / scale-factor=0 / refine-intra=0 / refine-inter=0 / refine-mv=0 / no-limit-sao / ctu-info=0 / no-lowpass-dct / refine-mv-type=0 / copy-pic=1 / max-ausize-factor=1.0 / no-dynamic-refine / no-single-sei

Default : Yes

Forced : No

Color range : Limited

Color primaries : BT.709

Transfer characteristics : BT.709

Matrix coefficients : BT.709

Audio #1
ID : 2

Format : E-AC-3
Format/Info : Enhanced AC-3

Commercial name : Dolby Digital Plus

Codec ID : A_EAC3

Duration : 2 h 6 min

Bit rate mode : Constant

Bit rate : 448 kb/s

Channel(s) : 6 channels

Channel layout : L R C LFE Ls Rs

Sampling rate : 48.0 kHz

Frame rate : 31.250 FPS (1536 SPF)

Compression mode : Lossy

Stream size : 404 MiB (11%)

Title : Français 5.1 EAC3 448kbps 48khz 16bits
Language : French
Service kind : Complete Main

Default : Yes

Forced : No

Audio #2
ID : 3

Format : E-AC-3
Format/Info : Enhanced AC-3

Commercial name : Dolby Digital Plus

Codec ID : A_EAC3

Duration : 2 h 6 min

Bit rate mode : Constant

Bit rate : 448 kb/s

Channel(s) : 6 channels

Channel layout : L R C LFE Ls Rs

Sampling rate : 48.0 kHz

Frame rate : 31.250 FPS (1536 SPF)

Compression mode : Lossy

Stream size : 404 MiB (11%)

Title : English 5.1 EAC3 448kbps 48khz 16bits
Language : English
Service kind : Complete Main

Default : No

Forced : No

Text #1
ID : 4

Format : UTF-8
Codec ID : S_TEXT/UTF8

Codec ID/Info : UTF-8 Plain Text

Duration : 2 h 6 min

Bit rate : 3 b/s

Count of elements : 117

Stream size : 3.18 KiB (0%)

Title : Français forcé (Passages)
Language : French
Default : Yes

Forced : Yes

Text #2
ID : 5

Format : UTF-8
Codec ID : S_TEXT/UTF8

Codec ID/Info : UTF-8 Plain Text

Duration : 2 h 6 min

Bit rate : 32 b/s

Count of elements : 1181

Stream size : 30.1 KiB (0%)

Title : Français complet (Tous le film)
Language : French
Default : No

Forced : No

Text #3
ID : 6

Format : PGS
Muxing mode : zlib

Codec ID : S_HDMV/PGS

Codec ID/Info : Picture based subtitle format used on BDs/HD-DVDs

Duration : 1 h 49 min

Bit rate : 1 992 b/s

Count of elements : 224

Stream size : 1.56 MiB (0%)

Title : Français forcé (Passages) PGS
Language : French
Default : No

Forced : Yes

Text #4
ID : 7

Format : PGS
Muxing mode : zlib

Codec ID : S_HDMV/PGS

Codec ID/Info : Picture based subtitle format used on BDs/HD-DVDs

Duration : 2 h 4 min

Bit rate : 19.0 kb/s

Count of elements : 2358

Stream size : 17.0 MiB (0%)

Title : Français complet (Tous le film) PGS
Language : French
Default : No

Forced : No

Menu
00:00:00.000 : :01 – 00:00:00

00:08:48.152 : :02 – 00:08:48

00:15:21.045 : :03 – 00:15:21

00:21:39.464 : :04 – 00:21:39

00:29:27.807 : :05 – 00:29:27

00:39:22.443 : :06 – 00:39:22

00:47:58.208 : :07 – 00:47:58

00:56:56.496 : :08 – 00:56:56

01:03:42.735 : :09 – 01:03:42

01:15:30.484 : :10 – 01:15:30

01:23:59.659 : :11 – 01:23:59

01:27:43.633 : :12 – 01:27:43

01:36:49.637 : :13 – 01:36:49

01:42:56.879 : :14 – 01:42:56

01:52:06.010 : :15 – 01:52:06

02:00:40.858 : :16 – 02:00:40

Snowpiercer 2013 Bonus BR EACDownload Torrent Magnet

#Snowpiercer #Bonus #EAC