Sleep.With.Me.1994.1080p.BluR Full Torrent Magnet Download

Download Torrent Sleep.With.Me.1994.1080p.BluR Movie Full in HD Result. Movie Sleep.With.Me.1994.1080p.BluR Torrent Download full. Movie Sleep.With.Me.1994.1080p.BluR torrent Magnet Download Full. Sleep.With.Me.1994.1080p.BluR Full Movie Torrent Download And Magnet Download For your PC And Mobiles. Latest Movie Sleep.With.Me.1994.1080p.BluR Download Link In Bottom.

Torrent And Magnet Links Below

Quote:

*************************************************************

******************************Thumbnbil:*********************

******************************Screenshots:********************

screenshot 1

screenshot 2

screenshot 3

screenshot 4

screenshot 5

screenshot 6

screenshot 7

screenshot 8

screenshot 9

screenshot 0

******************************************************

18+.Sleep.With.Me.1994.1080p.BluRay.x264.LLG.mp4

Format : MPEG-4

Format profile : Base Media

Codec ID : isom (isom/iso2/avc1/mp41)

File size : 798 MiB

Duration : 1 h 26 min

Overall bit rate mode : Variable

Overall bit rate : 1 291 kb/s

Writing application : Lavf58.29.100

Video

ID : 1

Format : AVC

Format/Info : Advanced Video Codec

Format profile : [email protected]
Format settings : CABAC / 1 Ref Frames

Format settings, CABAC : Yes

Format settings, Reference frames : 1 frame

Codec ID : avc1

Codec ID/Info : Advanced Video Coding

Duration : 1 h 26 min

Bit rate mode : Variable

Bit rate : 1 158 kb/s

Maximum bit rate : 3 600 kb/s

Width : 1 200 pixels

Height : 896 pixels

Display aspect ratio : 4:3

Frame rate mode : Constant

Frame rate : 23.976 (23976/1000) FPS

Color space : YUV

Chroma subsampling : 4:2:0

Bit depth : 8 bits

Scan type : Progressive

Bits/(Pixel*Frame) : 0.045

Stream size : 716 MiB (90%)

Codec configuration box : avcC

Audio

ID : 2

Format : AAC LC

Codec ID : mp4a-40-2

Duration : 1 h 26 min

Bit rate mode : Constant

Bit rate : 129 kb/s

Channel(s) : 2 channels

Channel layout : L R

Sampling rate : 48.0 kHz

Frame rate : 46.875 FPS (1024 SPF)

Compression mode : Lossy

Stream size : 79.5 MiB (10%)

Default : Yes

Alternate group : 1

********************************************************

Sleep.With.Me.1994.1080p.BluRDownload Torrent Magnet

#SleepWithMe19941080pBluR