Slave.Girls.From.Beyond.Infin Full Torrent Magnet Download

Download Torrent Slave.Girls.From.Beyond.Infin Movie Full in HD Result. Movie Slave.Girls.From.Beyond.Infin Torrent Download full. Movie Slave.Girls.From.Beyond.Infin torrent Magnet Download Full. Slave.Girls.From.Beyond.Infin Full Movie Torrent Download And Magnet Download For your PC And Mobiles. Latest Movie Slave.Girls.From.Beyond.Infin Download Link In Bottom.

Torrent And Magnet Links Below

Quote:

*************************************************************

******************************Thumbnbil:*********************

******************************Screenshots:********************

screenshot 1

screenshot 2

screenshot 3

screenshot 4

screenshot 5

screenshot 6

screenshot 7

screenshot 8

screenshot 9

screenshot 0

******************************************************

18+.Slave.Girls.From.Beyond.Infinity.1987.1080p.WEBRip.x264.AAC.With.Sample.LLG.mp4

Format : MPEG-4

Format profile : Base Media

Codec ID : isom (isom/iso2/avc1/mp41)

File size : 1.11 GiB

Duration : 1 h 14 min

Overall bit rate mode : Variable

Overall bit rate : 2 142 kb/s

Writing application : Lavf57.83.100

Video

ID : 1

Format : AVC

Format/Info : Advanced Video Codec

Format profile : [email protected]
Format settings : CABAC / 1 Ref Frames

Format settings, CABAC : Yes

Format settings, Reference frames : 1 frame

Codec ID : avc1

Codec ID/Info : Advanced Video Coding

Duration : 1 h 14 min

Bit rate mode : Variable

Bit rate : 2 009 kb/s

Maximum bit rate : 6 000 kb/s

Width : 1 920 pixels

Height : 1 072 pixels

Display aspect ratio : 16:9

Frame rate mode : Constant

Frame rate : 23.976 (23976/1000) FPS

Color space : YUV

Chroma subsampling : 4:2:0

Bit depth : 8 bits

Scan type : Progressive

Bits/(Pixel*Frame) : 0.041

Stream size : 1.04 GiB (94%)

Codec configuration box : avcC

Audio

ID : 2

Format : AAC LC

Codec ID : mp4a-40-2

Duration : 1 h 14 min

Bit rate mode : Constant

Bit rate : 129 kb/s

Channel(s) : 2 channels

Channel layout : L R

Sampling rate : 48.0 kHz

Frame rate : 46.875 FPS (1024 SPF)

Compression mode : Lossy

Stream size : 68.7 MiB (6%)

Default : Yes

Alternate group : 1

********************************************************

Slave.Girls.From.Beyond.InfinDownload Torrent Magnet

#SlaveGirlsFromBeyondInfin