Skylines.2020.BRRip.XviD.B4ND Full Torrent Magnet Download

Download Torrent Skylines.2020.BRRip.XviD.B4ND Movie Full in HD Result. Movie Skylines.2020.BRRip.XviD.B4ND Torrent Download full. Movie Skylines.2020.BRRip.XviD.B4ND torrent Magnet Download Full. Skylines.2020.BRRip.XviD.B4ND Full Movie Torrent Download And Magnet Download For your PC And Mobiles. Latest Movie Skylines.2020.BRRip.XviD.B4ND Download Link In Bottom.

Torrent And Magnet Links Below

Skylines.2020.BRRip.XviD.B4ND1T69

Director: Liam O’Donnell

Writers: Matthew E. Chausse (story by), Joshua Cordes (characters created by)

Stars: Lindsey Morgan, Rhona Mitra, James Cosmo

Plot/Story:

When a virus threatens to turn the now earth-dwelling friendly alien hybrids against humans, Captain Rose Corley must lead a team of elite mercenaries on a mission to the alien world in order to save what’s left of humanity.

General

Complete name : Skylines.2020.BRRip.XviD.B4ND1T69.avi

Format : AVI

Format/Info : Audio Video Interleave

File size : 1.08 GiB

Duration : 1 h 53 min

Overall bit rate : 1 368 kb/s

Subtitles : Yes…Hardcoded for non-English parts + file included(HI)

Video

ID : 0

Format : MPEG-4 Visual

Format profile : Advanced [email protected]
Format settings, BVOP : 2

Format settings, QPel : No

Format settings, GMC : No warppoints

Format settings, Matrix : Default (H.263)

Codec ID : XVID

Codec ID/Hint : XviD

Duration : 1 h 53 min

Bit rate : 1 227 kb/s

Width : 720 pixels

Height : 304 pixels

Display aspect ratio : 2.35:1

Frame rate : 23.976 (24000/1001) FPS

Color space : YUV

Chroma subsampling : 4:2:0

Bit depth : 8 bits

Scan type : Progressive

Compression mode : Lossy

Bits/(Pixel*Frame) : 0.234

Stream size : 995 MiB (90%)

Writing library : XviD 64

Audio

ID : 1

Format : MPEG Audio

Format version : Version 1

Format profile : Layer 3

Codec ID : 55

Codec ID/Hint : MP3

Duration : 1 h 53 min

Bit rate mode : Constant

Bit rate : 128 kb/s

Channel(s) : 2 channels

Sampling rate : 48.0 kHz

Compression mode : Lossy

Stream size : 104 MiB (9%)

Alignment : Aligned on interleaves

Interleave, duration : 24 ms (0.58 video frame)

Screenshots:









Please Seed For As Long As Possible

Or At Least 1:1 Ratio…Thanks

Enjoy Peeps

Skylines.2020.BRRip.XviD.B4NDDownload Torrent Magnet

#Skylines2020BRRipXviDB4ND