Skyline 2010 BR EAC3 VFF ENG Full Torrent Magnet Download

Download Torrent Skyline 2010 BR EAC3 VFF ENG Movie Full in HD Result. Movie Skyline 2010 BR EAC3 VFF ENG Torrent Download full. Movie Skyline 2010 BR EAC3 VFF ENG torrent Magnet Download Full. Skyline 2010 BR EAC3 VFF ENG Full Movie Torrent Download And Magnet Download For your PC And Mobiles. Latest Movie Skyline 2010 BR EAC3 VFF ENG Download Link In Bottom.

Torrent And Magnet Links Below

______________________________________________________________________________________________________________
Skyline 2010
Bluray · 1080p x265 10bits · DD+ 5.1 VFF ENG
¯¯¯¯¯¯¯¯¯¯¯¯¯¯¯¯¯¯¯¯¯¯¯¯¯¯¯¯¯¯¯¯¯¯¯¯¯¯¯¯¯¯¯¯¯¯¯¯¯¯¯¯¯¯¯¯¯¯¯¯¯¯¯¯¯¯¯¯¯¯¯¯¯¯¯¯¯¯¯¯

Year : 2010

Country : United States

Original, French and English Title : Skyline

Quebec Title : Horizon

Director : Colin Strause , Greg Strause
Music from : Matthew Margeson

Acteurs : Eric Balfour, Scottie Thompson, David Zayas, Donald Faison, Brittany Daniel, Crystal Reed, Neil Hopkins

Genre : Sci-Fi, Thriller, Action

Certificate : All public
Budget : 10 000 000 $ · Recipe : 66 742 876 $ · ratio : 667 %

Link : Allociné 1,6 /5 · IMDB 4,4 /10 · TMDB 48 % · SensCritique 3,4 /10 · Wiki · Bande Annonce

French Plot
Après une soirée bien arrosée, un groupe d’amis est réveillé par d’étranges lumières dans le ciel . Ils découvrent avec horreur de gigantesques vaisseaux extraterrestres surplombant les métropoles du monde entier. De puissantes sources lumineuses semblent aspirer les hommes par milliers… La stupeur passée, la fuite et la résistance s’organisent. L’humanité est-elle condamnée à disparaître ?


If you enjoy and wish to support, please stay in seeding

Technical Details
¯¯¯¯¯¯¯¯¯¯¯¯¯¯¯¯¯¯¯¯¯¯¯¯¯¯¯¯¯¯¯¯¯¯¯¯¯¯¯¯¯¯¯¯¯¯¯¯¯¯¯¯¯¯¯¯¯¯¯¯¯¯¯¯¯¯¯¯¯¯¯¯¯¯¯¯¯¯¯¯¯¯¯¯¯¯¯¯¯¯¯¯¯¯¯¯¯¯¯¯
Media
Matroska 2,15 Gio 1 h32 mn 3328 Kbps

Video
HEVC/H265 1920 x800 @23.976 [email protected]@Main 10 bits 2428 Kbps Slower
Audio
True French 5.1 EAC3 448 Kbps 48KHz 16bits

English (OV) 5.1 EAC3 448 Kbps 48KHz 16bits

Subtitles
True French forced SRT
True French full SRT
Screenshot

Origin
Bluray

NFO
¯¯¯¯¯¯¯¯¯¯¯¯¯¯¯¯¯¯¯¯¯¯¯¯¯¯¯¯¯¯¯¯¯¯¯¯¯¯¯¯¯¯¯¯¯¯¯¯¯¯¯¯¯¯¯¯¯¯¯¯¯¯¯¯¯¯¯¯¯¯¯¯¯¯¯¯¯¯¯¯¯¯¯¯¯¯¯¯¯¯¯¯¯¯¯¯¯¯¯¯

General
Complete name : Skyline 2010 BR EAC3 VFF ENG 1080p x265 10Bits T0M.mkv

Format : Matroska
Format version : Version 4

File size : 2.15 GiB
Duration : 1 h 32 min

Overall bit rate : 3 328 kb/s

Movie name : Skyline 2010 de Colin Strause, Greg Strause avec Eric Balfour, Scottie Thompson, David Zayas, Donald Faison [allocine=183574,imdb=tt1564585]
Encoded date : UTC 2016-11-22 16:45:15

Writing application : mkvmerge v8.0.0 (‘Til The Day That I Die’) 64bit

Writing library : libebml v1.3.1 + libmatroska v1.4.2

Cover : Yes

Attachments : Cover.jpg

Video
ID : 1

Format : HEVC
Format/Info : High Efficiency Video Coding

Format profile : Main [email protected]@Main

Codec ID : V_MPEGH/ISO/HEVC

Duration : 1 h 32 min

Bit rate : 2 428 kb/s

Width : 1 920 pixels

Height : 800 pixels

Display aspect ratio : 2.40:1

Frame rate mode : Constant

Frame rate : 23.976 (24000/1001) FPS

Color space : YUV

Chroma subsampling : 4:2:0

Bit depth : 10 bits

Bits/(Pixel*Frame) : 0.066

Stream size : 1.57 GiB (73%)

Title : Video HEVC 1920×1080 @23.976 x265 [email protected]@Main 10bits Q20 Slower
Writing library : x265 1.9:[Windows][GCC 4.9.2][64 bit] 10bit

Encoding settings : wpp / ctu=64 / min-cu-size=8 / max-tu-size=32 / tu-intra-depth=2 / tu-inter-depth=2 / me=3 / subme=3 / merange=57 / rect / amp / max-merge=3 / temporal-mvp / no-early-skip / rdpenalty=0 / no-tskip / no-tskip-fast / strong-intra-smoothing / no-lossless / no-cu-lossless / no-constrained-intra / no-fast-intra / open-gop / no-temporal-layers / interlace=0 / keyint=240 / min-keyint=24 / scenecut=40 / rc-lookahead=30 / lookahead-slices=4 / bframes=8 / bframe-bias=0 / b-adapt=2 / ref=4 / limit-refs=2 / limit-modes / weightp / weightb / aq-mode=1 / qg-size=32 / aq-strength=1.00 / cbqpoffs=0 / crqpoffs=0 / rd=6 / psy-rd=2.00 / rdoq-level=2 / psy-rdoq=1.00 / signhide / deblock / sao / no-sao-non-deblock / b-pyramid / cutree / no-intra-refresh / rc=crf / crf=20.0 / qcomp=0.60 / qpmin=0 / qpmax=51 / qpstep=4 / ipratio=1.40 / pbratio=1.30

Default : Yes

Forced : No

Color range : Limited

Color primaries : BT.709

Transfer characteristics : BT.709

Matrix coefficients : BT.709

Audio #1
ID : 2

Format : E-AC-3
Format/Info : Enhanced AC-3

Commercial name : Dolby Digital Plus

Codec ID : A_EAC3

Duration : 1 h 32 min

Bit rate mode : Constant

Bit rate : 448 kb/s

Channel(s) : 6 channels

Channel layout : L R C LFE Ls Rs

Sampling rate : 48.0 kHz

Frame rate : 31.250 FPS (1536 SPF)

Compression mode : Lossy

Delay relative to video : -5 ms

Stream size : 297 MiB (13%)

Title : Français 5.1 EAC3 448kbps 48khz 16bits
Language : French
Service kind : Complete Main

Default : Yes

Forced : No

Audio #2
ID : 3

Format : E-AC-3
Format/Info : Enhanced AC-3

Commercial name : Dolby Digital Plus

Codec ID : A_EAC3

Duration : 1 h 32 min

Bit rate mode : Constant

Bit rate : 448 kb/s

Channel(s) : 6 channels

Channel layout : L R C LFE Ls Rs

Sampling rate : 48.0 kHz

Frame rate : 31.250 FPS (1536 SPF)

Compression mode : Lossy

Delay relative to video : -5 ms

Stream size : 297 MiB (13%)

Title : English 5.1 EAC3 448kbps 48khz 16bits
Language : English
Service kind : Complete Main

Default : No

Forced : No

Text #1
ID : 4

Format : UTF-8
Codec ID : S_TEXT/UTF8

Codec ID/Info : UTF-8 Plain Text

Duration : 1 h 21 min

Bit rate : 0 b/s

Count of elements : 5

Stream size : 196 Bytes (0%)

Title : Français forcé (Passages)
Language : French
Default : Yes

Forced : Yes

Text #2
ID : 5

Format : UTF-8
Codec ID : S_TEXT/UTF8

Codec ID/Info : UTF-8 Plain Text

Duration : 1 h 26 min

Bit rate : 23 b/s

Count of elements : 557

Stream size : 14.8 KiB (0%)

Title : Français complet (Tous le film)
Language : French
Default : No

Forced : No

Skyline 2010 BR EAC3 VFF ENG Download Torrent Magnet

#Skyline #EAC3 #VFF #ENG