Shutter (2004) 720p h264 Ac3 Full Torrent Magnet Download

Download Torrent Shutter (2004) 720p h264 Ac3 Movie Full in HD Result. Movie Shutter (2004) 720p h264 Ac3 Torrent Download full. Movie Shutter (2004) 720p h264 Ac3 torrent Magnet Download Full. Shutter (2004) 720p h264 Ac3 Full Movie Torrent Download And Magnet Download For your PC And Mobiles. Latest Movie Shutter (2004) 720p h264 Ac3 Download Link In Bottom.

Torrent And Magnet Links Below

Shutter (2004) 720p h264 Ac3 Ita Thai Sub Eng – MIRCrew


NO FOUND ONLY ORIGINAL RELEASE

My release is always in double track audio italian and Original audio

for select it use VLC or dvd player home

not use wmp

ENGLISH SUBTITLE INSIDE

Shutter (2004)

Quality MIRCrew on HD 720p da 1,5 gb

Titolo originale Shutter

Lingua originale Thailandese

Paese di produzione Thailandia

Anno 2004

Durata 97 min

Genere Horror

Regia Banjong Pisanthanakun, Parkpoom Wongpoom

Sceneggiatura Banjong Pisanthanakun, Sopon Sukdapisit, Parkpoom Wongpoom

Fotografia Niramon Ross

Montaggio Manop Boonvipat, Lee Chatametikool

Musiche Chartchai Pongprapapan

Ananda Everingham: Tun

Natthaweeranuch Thongmee: Jane

Achita Sikamana: Natre

Unnop Chanpaibool: Tonn

Al ritorno da un matrimonio Tun e Jane, ubriachi, investono una ragazza e, presi dal panico, fuggono lasciando il cadavere di questa sull’asfalto e…………………

A young photographer and his girlfriend discover mysterious shadows in their photographs after a tragic accident. They soon learn that you can not escape your past.

General

Complete name : Shutter (2004) 720p h264 Ac3 Ita Thai Sub Eng – MIRCrewShutter (2004) 720p h264 Ac3 Ita Thai Sub Eng – MIRCrew.mkv

Format : Matroska

Format version : Version 2

File size : 1.54 GiB

Duration : 1h 36mn

Overall bit rate : 2 280 Kbps

Movie name : MIRCrew

Encoded date : UTC 2020-07-03T08:36:12Z

Writing application : mkvmerge v5.8.0 (‘No Sleep / Pillow’) built on Sep 2 2012 15:37:04

Writing library : Lavf55.12.0

Video

ID : 1

Format : AVC

Format/Info : Advanced Video Codec

Format profile : [email protected]
Format settings, CABAC : Yes

Format settings, ReFrames : 4 frames

Codec ID : V_MPEG4/ISO/AVC

Duration : 1h 36mn

Bit rate : 1 900 Kbps

Width : 1 280 pixels

Height : 720 pixels

Display aspect ratio : 16:9

Frame rate mode : Variable

Frame rate : 24.000 fps

Color space : YUV

Chroma subsampling : 4:2:0

Bit depth : 8 bits

Scan type : Progressive

Bits/(Pixel*Frame) : 0.086

Stream size : 1.25 GiB (81%)

Title : MIRCrew

Writing library : x264 core 142 r2479 dd79a61

Encoding settings : cabac=1 / ref=1 / deblock=1:0:0 /

Language : Italian

Default : Yes

Forced : No

Color primaries : BT.709-5, BT.1361, IEC 61966-2-4, SMPTE RP177

Transfer characteristics : BT.709-5, BT.1361

Matrix coefficients : BT.709-5, BT.1361, IEC 61966-2-4 709, SMPTE RP177

Audio #1

ID : 2

Format : AC-3

Format/Info : Audio Coding 3

Mode extension : CM (complete main)

Codec ID : A_AC3

Duration : 1h 36mn

Bit rate mode : Constant

Bit rate : 192 Kbps

Channel(s) : 2 channels

Channel positions : Front: L R

Sampling rate : 48.0 KHz

Bit depth : 16 bits

Compression mode : Lossy

Delay relative to video : -5ms

Stream size : 133 MiB (8%)

Title : Ita

Language : Italian

Default : Yes

Forced : No

Audio #2

ID : 3

Format : AC-3

Format/Info : Audio Coding 3

Mode extension : CM (complete main)

Muxing mode : Header stripping

Codec ID : A_AC3

Duration : 1h 36mn

Bit rate mode : Constant

Bit rate : 192 Kbps

Channel(s) : 2 channels

Channel positions : Front: L R

Sampling rate : 48.0 KHz

Bit depth : 16 bits

Compression mode : Lossy

Delay relative to video : -5ms

Stream size : 133 MiB (8%)

Title : Tha

Language : Thai

Default : No

Forced : No

Shutter (2004) 720p h264 Ac3 Download Torrent Magnet

#Shutter #720p #h264 #Ac3