Shrek (2001) 2160p HDR 5.1 x2 Full Torrent Magnet Download

Download Torrent Shrek (2001) 2160p HDR 5.1 x2 Movie Full in HD Result. Movie Shrek (2001) 2160p HDR 5.1 x2 Torrent Download full. Movie Shrek (2001) 2160p HDR 5.1 x2 torrent Magnet Download Full. Shrek (2001) 2160p HDR 5.1 x2 Full Movie Torrent Download And Magnet Download For your PC And Mobiles. Latest Movie Shrek (2001) 2160p HDR 5.1 x2 Download Link In Bottom.

Torrent And Magnet Links Below

www.imdb.com/title/tt0126029/

A mean lord exiles fairytale creatures to the swamp of a grumpy ogre, who must go on a quest and rescue a princess for the lord in order to get his land back.

Source: FGT (Remux)

Format : Matroska

Format version : Version 4

File size : 2.29 GiB

Duration : 1 h 30 min

Overall bit rate : 3 614 kb/s

Writing application : HandBrake 1.3.3 2020061300

Writing library : Lavf58.29.100

Video

ID : 1

Format : HEVC

Format/Info : High Efficiency Video Coding

Format profile : Main [email protected]@High

Codec ID : V_MPEGH/ISO/HEVC

Duration : 1 h 30 min

Bit rate : 3 222 kb/s

Width : 3 840 pixels

Height : 2 080 pixels

Display aspect ratio : 1.85:1

Frame rate mode : Constant

Frame rate : 23.976 (24000/1001) FPS

Color space : YUV

Chroma subsampling : 4:2:0

Bit depth : 10 bits

Bits/(Pixel*Frame) : 0.017

Stream size : 2.04 GiB (89%)

Writing library : x265 3.2.1+1-b5c86a64bbbe:[Windows][GCC 9.2.0][64 bit] 10bit

Color range : Full

Color primaries : BT.2020

Transfer characteristics : PQ

Matrix coefficients : BT.2020 non-constant

Audio

ID : 2

Format : AC-3

Format/Info : Audio Coding 3

Commercial name : Dolby Digital

Codec ID : A_AC3

Duration : 1 h 30 min

Bit rate mode : Constant

Bit rate : 320 kb/s

Channel(s) : 6 channels

Channel layout : L R C LFE Ls Rs

Sampling rate : 48.0 kHz

Frame rate : 31.250 FPS (1536 SPF)

Compression mode : Lossy

Stream size : 207 MiB (9%)

Title : Surround

Language : English

Text
Language : English

Language : English

Language : Spanish

Language : French

Language : Spanish

Language : French

Default : No

Forced : No

Shrek (2001) 2160p HDR 5.1 x2Download Torrent Magnet

#Shrek #2160p #HDR