Shock.Wave.2.2020.HC.BRRip.Xv Full Torrent Magnet Download

Download Torrent Shock.Wave.2.2020.HC.BRRip.Xv Movie Full in HD Result. Movie Shock.Wave.2.2020.HC.BRRip.Xv Torrent Download full. Movie Shock.Wave.2.2020.HC.BRRip.Xv torrent Magnet Download Full. Shock.Wave.2.2020.HC.BRRip.Xv Full Movie Torrent Download And Magnet Download For your PC And Mobiles. Latest Movie Shock.Wave.2.2020.HC.BRRip.Xv Download Link In Bottom.

Torrent And Magnet Links Below

Shock.Wave.2.2020.HC.BRRip.XviD.B4ND1T69

Director: Herman Yau

Writers: Herman Yau, Erica Li

Stars: Andy Lau, Ching Wan Lau, Ni Ni

Plot/Story:

When a bomb went off unexpectedly during a police operation to disarm it, Poon Shing-Fung, a bomb disposal officer, got caught in the blast and thus lost one of his legs. Poon decided to leave the police service. Three years later, the police suspect Poon, who was found in a coma at the spot of a terrorist bombing attack, of being involved in several bombing attacks in the past two years. Poon can hardly remember his past and even his own identity due to Post Traumatic Amnesia. He plans to escape to find out the truth. Meanwhile, knowing the terrorist organization’s schemes of destroying Hong Kong landmarks, Poon, as the key person between the police and the terrorist organization, would possibly save or destroy lives of the innocent civilians in the city.

General

Complete name : Shock.Wave.2.2020.HC.BRRip.XviD.B4ND1T69.avi

Format : AVI

Format/Info : Audio Video Interleave

File size : 1.46 GiB

Duration : 2 h 0 min

Overall bit rate : 1 741 kb/s

Subtitles : Yes…Hardcoded English thoughout

Video

ID : 0

Format : MPEG-4 Visual

Format profile : Advanced [email protected]
Format settings, BVOP : 2

Format settings, QPel : No

Format settings, GMC : No warppoints

Format settings, Matrix : Default (H.263)

Codec ID : XVID

Codec ID/Hint : XviD

Duration : 2 h 0 min

Bit rate : 1 600 kb/s

Width : 720 pixels

Height : 304 pixels

Display aspect ratio : 2.35:1

Frame rate : 24.000 FPS

Color space : YUV

Chroma subsampling : 4:2:0

Bit depth : 8 bits

Scan type : Progressive

Compression mode : Lossy

Bits/(Pixel*Frame) : 0.305

Stream size : 1.34 GiB (92%)

Writing library : XviD 64

Audio

ID : 1

Format : MPEG Audio

Format version : Version 1

Format profile : Layer 3

Codec ID : 55

Codec ID/Hint : MP3

Duration : 2 h 0 min

Bit rate mode : Constant

Bit rate : 128 kb/s

Channel(s) : 2 channels

Sampling rate : 48.0 kHz

Compression mode : Lossy

Stream size : 110 MiB (7%)

Alignment : Aligned on interleaves

Interleave, duration : 24 ms (0.58 video frame)

Screenshots:









Please Seed For As Long As Possible

Or At Least 1:1 Ratio…Thanks

Enjoy Peeps

Shock.Wave.2.2020.HC.BRRip.XvDownload Torrent Magnet

#ShockWave22020HCBRRipXv