She’s Out of My League 2010 x Full Torrent Magnet Download

Download Torrent She’s Out of My League 2010 x Movie Full in HD Result. Movie She’s Out of My League 2010 x Torrent Download full. Movie She’s Out of My League 2010 x torrent Magnet Download Full. She’s Out of My League 2010 x Full Movie Torrent Download And Magnet Download For your PC And Mobiles. Latest Movie She’s Out of My League 2010 x Download Link In Bottom.

Torrent And Magnet Links Below

Greets

Admin , Moderator , Noir, Ex0duS5150, theeshiznit, MisterQ, UserHEVC, miok, Silmarillion, Mr. Blue, MaDHeX and many more ;

Join Us On TeleGram

https://t.me/gopisahit

She’s Out of My League 2010 x264 720p Esub BluRay Dual Audio English Hindi THE GOPI SAHI

Format : Matroska

Format version : Version 4

File size : 962 MiB

Duration : 1 h 45 min

Overall bit rate : 1 276 kb/s

Movie name : She’s Out of My League 2010 GOPI SAHI

Encoded date : UTC 2021-06-02 09:21:55

Video

ID : 1

Format : AVC

Format/Info : Advanced Video Codec

Format profile : [email protected]
Format settings : CABAC / 5 Ref Frames

Format settings, CABAC : Yes

Format settings, Reference fra : 5 frames

Codec ID : V_MPEG4/ISO/AVC

Duration : 1 h 44 min

Bit rate : 899 kb/s

Width : 1 280 pixels

Height : 544 pixels

Display aspect ratio : 2.35:1

Frame rate mode : Constant

Frame rate : 23.976 (24000/1001) FPS

Color space : YUV

Chroma subsampling : 4:2:0

Bit depth : 8 bits

Scan type : Progressive

Bits/(Pixel*Frame) : 0.054

Stream size : 672 MiB (70%)

Title : GOPI SAHI

Writing library : x264 core 157 r2935 545de2f

Audio #1

ID : 2

Format : AAC LC

Format/Info : Advanced Audio Codec Low Complexity

Codec ID : A_AAC-2

Duration : 1 h 45 min

Bit rate : 192 kb/s

Channel(s) : 6 channels

Channel layout : C L R Ls Rs LFE

Sampling rate : 48.0 kHz

Frame rate : 46.875 FPS (1024 SPF)

Compression mode : Lossy

Delay relative to video : 61 ms

Stream size : 144 MiB (15%)

Title : GOPI SAHI

Language : Hindi

Default : Yes

Forced : No

Audio #2

ID : 3

Format : AAC LC

Format/Info : Advanced Audio Codec Low Complexity

Codec ID : A_AAC-2

Duration : 1 h 44 min

Bit rate : 192 kb/s

Channel(s) : 6 channels

Channel layout : C L R Ls Rs LFE

Sampling rate : 48.0 kHz

Frame rate : 46.875 FPS (1024 SPF)

Compression mode : Lossy

Delay relative to video : -21 ms

Stream size : 144 MiB (15%)

Title : GOPI SAHI

Language : English

Default : No

Forced : No

Text

ID : 4

Format : UTF-8

Codec ID : S_TEXT/UTF8

Codec ID/Info : UTF-8 Plain Text

Duration : 1 h 38 min

Bit rate : 87 b/s

Count of elements : 1567

Stream size : 63.7 KiB (0%)

Title : GOPI SAHI

Language : English

Default : Yes

Forced : No

Menu

00:00:00.000 : :Chapter 1

00:03:29.835 : :Chapter 2

00:06:50.911 : :Chapter 3

00:11:51.753 : :Chapter 4

00:16:53.804 : :Chapter 5

00:22:41.610 : :Chapter 6

00:27:37.614 : :Chapter 7

00:35:43.058 : :Chapter 8

00:44:07.854 : :Chapter 9

00:51:58.240 : :Chapter 10

01:02:12.270 : :Chapter 11

01:07:22.622 : :Chapter 12

01:14:18.496 : :Chapter 13

01:22:37.619 : :Chapter 14

01:27:59.524 : :Chapter 15

01:34:14.274 : :Chapter 16

She’s Out of My League 2010 xDownload Torrent Magnet

#Shes #League